<?xml version="1.0" standalone="no"?>
<!DOCTYPE svg PUBLIC "-//W3C//DTD SVG 1.1//EN" "http://www.w3.org/Graphics/SVG/1.1/DTD/svg11.dtd" >
<svg>
<metadata>
Created by FontForge 20090914 at Thu Aug 22 09:43:23 2013
 By www-data
Ammys Handwriting &#194;&#169; (ego-box.com). &#60;2008&#62;. All Rights Reserved
</metadata>
<defs>
<font id="AmmysHandwriting" horiz-adv-x="1139" >
  <font-face 
    font-family="Ammys Handwriting"
    font-weight="400"
    font-stretch="normal"
    units-per-em="2048"
    panose-1="2 0 0 0 0 0 0 0 0 0"
    ascent="1638"
    descent="-410"
    x-height="1191"
    cap-height="1854"
    bbox="-0.00390625 -890 1658 2366"
    underline-thickness="150"
    underline-position="-142"
    unicode-range="U+0020-U+F005"
  />
<missing-glyph horiz-adv-x="1124" 
 />
    <glyph glyph-name=".notdef" horiz-adv-x="1124" 
 />
    <glyph glyph-name="space" unicode=" " horiz-adv-x="708" 
 />
    <glyph glyph-name="space" unicode="&#xa0;" horiz-adv-x="708" 
 />
    <glyph glyph-name="exclam" unicode="!" horiz-adv-x="542" 
d="M242 1874c24.667 0 38.667 -21.667 42 -65c-4.66699 -39.333 -14 -72.666 -28 -99.999l7 -25l-7 -34l3 -17l-3 -132v-3l-14 -48l11 -18v-58c-7.33301 -22.667 -11 -42.334 -11 -59.001v-96l4 -56l-7 -20l3 -14l-3 -31v-38l-14 -38v-11l17 -51l-14 -49l11 -24l-7 -24
l3 -21v-10l-10 -59v-79c0 -46 -10.333 -69 -31 -69l-17 -14h-7c-17.333 0 -30 14 -38 42h3l-3 3v3c0 42 3.33301 63 10 63l7 262l-3 14l3 27l-3 104l20 138v48l11 59l-11 21l4 58v42l14 172v73l20 82c0 34.667 12.667 52 38 52zM201 404l27 -0.000976562
c36.667 0 59.667 -16 69 -48c8.66699 0 14.667 -7 18 -21c0 -33.333 -7 -58.666 -21 -75.999c-22 -34.667 -49.667 -52 -83 -52l-21 -17h-27c-44 8 -66 22 -66 42l-17 24v17c0 35.333 40.333 79 121 131z" />
    <glyph glyph-name="quotedbl" unicode="&#x22;" horiz-adv-x="727" 
d="M99 1600c25.333 -14.667 42.001 -35.334 50.001 -62.001c0 -7.33301 6.66699 -23.666 20 -48.999v-24c-10.667 -44 -26 -80 -46 -108c-36 -64 -69.333 -98 -100 -102c-12.667 0 -20.334 9.66699 -23.001 29h3l-3 3v3l41 70c19.333 36.667 29 67 29 91l-20 81v21
c0 31.333 16.333 47 49 47zM286.001 1576c24.667 -14 41.334 -34.332 50.001 -60.999c0 -8 6.66699 -24.667 20 -50v-23c-8.66699 -44.667 -34 -98.334 -76 -161.001c-32.667 -32.667 -56 -49 -70 -49c-12.667 0 -20.334 9.66699 -23.001 29h3l-3 3v3l41 70
c19.333 36 29 66 29 90l-20 82v21c0 30.667 16.333 46 49 46z" />
    <glyph glyph-name="numbersign" unicode="#" horiz-adv-x="1281" 
d="M744 1200l25.002 0.000976562c22.667 -14.667 34 -31.667 34 -51l-14 -36l3 -14l-3 -71v-3l17 -19c4.66699 4.66699 30 8.33398 76 11.001c4 5.33301 17 10 39 14v-3l130 23h8c20.667 -14 31 -27.333 31 -40v-5c0 -20.667 -22.333 -37.667 -67 -51h-37l-166 -31l-17 -20
l28 -115l-3 -3c8 0 12 -4.66699 12 -14l8 -3l113 11c0 3.33301 10.333 6.33301 31 9c24 0 40 -17 48 -51c0 -16 -16 -33 -48 -51l-37 9l-45 -3l-9 3l-5 -6h-3l-3 3c-22 -3.33301 -38 -11.666 -48 -24.999l6 -23l-3 -8c2 -36 5.66699 -67 11 -93
c-12.667 -38 -30.334 -57 -53.001 -57c-26.667 5.33301 -40 18.666 -40 39.999l3 20c-5.33301 86 -11 129 -17 129l-14 9l-76 -12h-22l-12 -3l-11 3c-48 -9.33301 -84.667 -14 -110 -14c0 -3.33301 -32 -8 -96 -14h-19c-18.667 -3.33301 -28 -12.666 -28 -27.999v-11l8 -43
l-3 -2c4 0 6 -3 6 -9l-3 -3v-2c4 -8 7 -24 9 -48c-8 -23.333 -22.333 -40.333 -43 -51l-11 -3c-24.667 0 -37 31 -37 93c0 58.667 -9.33301 91.667 -28 99l-20 -6l-59 3h-17l-14 -3v3l-3 -3h-76c-28 3.33301 -42 13.666 -42 30.999v6c0 25.333 21.667 41.333 65 48h56l6 5
l3 -3l14 3l82 -5c8 2.66699 15.333 9 22 19v23l6 45v3c0 42.667 -8.66699 64 -26 64c-40.667 0 -97 -9.33301 -169 -28h-53c-22.667 6 -34 17.333 -34 34c0 30.667 30 48.667 90 54l54 19l53 -2c54.667 0 82 12 82 36c-7.33301 47.333 -11 89.666 -11 126.999
c4.66699 22.667 15 34 31 34h11c28 0 42 -30 42 -90c0 -62 9.33301 -93 28 -93h48c37.333 9.33301 94.666 18.666 171.999 27.999c0 5.33301 17 10 51 14h42c5.33301 1.33301 12 8 20 20l-3 19l6 37l-6 53c0 33.333 11.333 56 34 68zM569.002 901.001h-31.002
c-67.333 -12.667 -118 -19 -152 -19c-16.667 -8.66699 -25 -19 -25 -31v-34l2 -31l-5 -17v-22l17 -17l115 2l127 20l3 3l11 -3l51 9h42c8.66699 4 15.334 10.333 20.001 19v12c-11.333 84 -22.666 126 -33.999 126h-6v3l-19 -3l-43 3z" />
    <glyph glyph-name="dollar" unicode="$" horiz-adv-x="938" 
d="M422 1801l4 -0.00292969c14.667 -8 22 -21.333 22 -40l2 -16l-2 -82l4 -26l-2 -2v-2l2 -16l-4 -43l6 -8c4.66699 -4 40 -13.333 106 -28c46 -19.333 73 -42.666 81 -69.999c9.33301 -16 14 -30 14 -42c0 -9.33301 -7.33301 -15.333 -22 -18
c-12.667 0 -23.334 12.667 -32.001 38c-16.667 18.667 -64.334 38.667 -143.001 60l-12 -14v-6l-6 -48l2 -2v-2l-4 -28v-38l-6 -29v-12l2 -8c-5.33301 -24 -8 -51.333 -8 -82l2 -6c0 -21.333 -7.33301 -63.666 -22 -126.999v-8c0 -14.667 10.667 -22 32 -22
c40.667 -10.667 66 -16 76 -16c16.667 -4.66699 45 -18 85 -40c22.667 -5.33301 50 -35.333 82 -90c18.667 -17.333 28 -51.666 28 -102.999v-8c0 -90 -74.333 -181 -223 -273c-60 -28 -104 -42 -132 -42c-18 0 -27 -11.333 -27 -34l-6 -43l2 -8
c-2.66699 0 -5.33398 -32 -8.00098 -96l2 -12l-10 -34l4 -32v-4c0 -18 -14 -31 -42 -39h-8c-16 0 -26 23 -30 69c16 24.667 24 69.334 24 134.001c5.33301 18 8 37 8 57v24c0 8.66699 -14.667 16 -44 22c-30.667 3.33301 -67 20 -109 50
c-73.333 65.333 -110 117.666 -110 156.999v12c4 9.33301 10 14 18 14s20.667 -18.667 38 -56c72 -70.667 121 -107.667 147 -111c0 -2.66699 3.33301 -4 10 -4v-2l2 2l44 -12c13.333 5.33301 20 16 20 32c2.66699 0 5.33398 26.333 8.00098 79
c4 5.33301 6.66699 23.333 8 54c5.33301 9.33301 8 18 8 26v16l8 82v32l14 61c0 29.333 3.33301 53.333 10 72c-6.66699 14.667 -20 22 -40 22l-12 -2c-44 2 -66 4 -66 6l-2 -2c-33.333 0 -81.666 20 -144.999 60c-33.333 26.667 -50 55.667 -50 87l-10 34v44
c9.33301 56 38 111 86 165c31.333 37.333 60.333 60.666 87 69.999c16.667 12.667 38.667 25.334 66 38.001c6.66699 4.66699 28 12.667 64 24c2.66699 3.33301 11.334 5.33301 26.001 6h31c14 0 22.667 9.66699 26 29v12l-4 54v10l4 32v68c4 22.667 12.667 34 26 34z
M299 1490h-2l-2 2l-70 -36c-38 -22.667 -65.333 -43.334 -82 -62.001c-41.333 -49.333 -63 -85.666 -65 -108.999c-6.66699 -12 -10 -29.333 -10 -52l2 -8h-2c0 -24.667 8 -48.667 24 -72c28.667 -27.333 67 -46.333 115 -57c23.333 0 55.333 -3.33301 96 -10
c14 0 22.667 -1.33301 26 -4c14 0 24.333 33.667 31 101c4 0 6.66699 28.667 8 86l-2 8l8 30v69l14 118c-4 10.667 -10 16 -18 16h-12c-16 0 -35.667 -6.66699 -59 -20zM388 973.997l-0.00390625 -13.9971c0 -18 -4 -49.667 -12 -95l-8 -34l2 -16l-4 -48v-22
c-5.33301 -16.667 -9.33301 -44.334 -12 -83.001c-5.33301 0 -8.66602 -23.333 -9.99902 -70l2 -6l-2 -8v-4l12 -12c24 4 60.667 16 110 36c44.667 31.333 67.334 48.666 68.001 51.999c54.667 40.667 87 75.667 97 105c12 20.667 18 38 18 52v42
c0 27.333 -20 62.333 -60 105c-44.667 32 -81 48 -109 48c-11.333 5.33301 -34.666 10.666 -69.999 15.999c-9.33301 0 -16.666 -14.667 -21.999 -44z" />
    <glyph glyph-name="percent" unicode="%" horiz-adv-x="1400" 
d="M1197 1854l5 0.00195312c24 -8 36 -21 36 -39c0 -4 -31.333 -45.333 -94 -124l-138 -213c-22.667 -36.667 -51 -75.334 -85 -116.001c-9.33301 -9.33301 -30.666 -42.333 -63.999 -99c-14 -16 -49 -67.667 -105 -155c-23.333 -22 -50.666 -58.667 -81.999 -110
c-48.667 -91.333 -108.667 -185 -180 -281c-24.667 -26 -55 -73 -91 -141c-84.667 -119.333 -150 -217 -196 -293c-11.333 -6 -25 -29.667 -41 -71c-16.667 -14.667 -35 -23 -55 -25c-26 0 -39 10 -39 30v3c0 15.333 12 37.333 36 66l61 86l49 80c58 78 98.667 136 122 174
l77 121c61.333 73.333 104.666 136.666 129.999 189.999c17.333 22.667 40.333 59.667 69 111c9.33301 10 25.666 35.667 48.999 77c27.333 31.333 71.666 91 132.999 179l55 83c10.667 8.66699 26.334 32.667 47.001 72c30 32 68.667 87.333 116 166l107 165
c34.667 42.667 60.667 64 78 64zM636 1757l20 -0.000976562c42 0 68.667 -37.667 80 -113c0 -15.333 -12 -40.333 -36 -75c-21.333 -18 -37 -27 -47 -27h-44c-18 0 -37.333 19.333 -58 58c-9.33301 11.333 -14 25 -14 41c0 36.667 26.667 73.334 80 110.001zM681 512.001
c40 -9.33301 67.334 -24.667 82.001 -46c18.667 -38 28 -73 28 -105v-6c0 -26 -24 -51.667 -72 -77c-12 -5.33301 -26.667 -8 -44 -8h-11c-64.667 14.667 -97 45 -97 91c5.33301 40 23 77.667 53 113c29.333 25.333 49.666 38 60.999 38z" />
    <glyph glyph-name="ampersand" unicode="&#x26;" horiz-adv-x="1142" 
d="M453 1850l58.001 -0.000976562c48.667 -6 88 -22 118 -48c34.667 -26 67 -54 97 -84c21.333 -26.667 38.333 -69.334 51 -128.001l3 -9v-77c-2.66699 -2 -7.33398 -29 -14.001 -81c-4.66699 0 -10 -22.333 -16 -67c-12 -31.333 -69.333 -96.333 -172 -195
c-57.333 -56.667 -93 -94.667 -107 -114c-70.667 -61.333 -106.334 -93.666 -107.001 -96.999v-5c0 -3.33301 14 -20.333 42 -51c2.66699 -6.66699 33.667 -42.334 93 -107.001l153 -162l53 -60c9.33301 0 21 17.667 35 53c23.333 31.333 43.666 68.333 60.999 111
c7.33301 4 18 30.333 32 79c6.66699 32 18.334 53 35.001 63l14 5h2c10 0 18.667 -6.33301 26 -19v-32c-22 -66.667 -44.667 -121.667 -68 -165l-55 -100c-12.667 -15.333 -20.334 -30 -23.001 -44c0 -9.33301 28.333 -38.666 85 -87.999c2 -6 23 -31 63 -75v-13
c0 -12.667 -8.66699 -20.667 -26 -24c-10.667 0 -37.667 22.667 -81 68c-4 0 -27 23 -69 69l-10 3c-9.33301 -6 -51 -51.667 -125 -137c-86 -67.333 -148.667 -101.333 -188 -102c-36.667 -11.333 -69 -17 -97 -17l-12 3l-16 -3
c-93.333 10.667 -146.666 26.334 -159.999 47.001c-52 30 -84.667 62.333 -98 97c-20 41.333 -30 78.666 -30 111.999c0 108 7 162 21 162c18.667 48 36.334 82.667 53.001 104c24.667 32.667 45 62.334 61 89.001c43.333 43.333 83.333 86.666 120 129.999
c12.667 6.66699 19 15 19 25c0 6 -18.667 36.333 -56 91c-34.667 58 -54 101.333 -58 130c-15.333 31.333 -28.333 69 -39 113v42c0 28 -4 73.667 -12 137c0 34.667 6.33301 77.334 19 128.001c26.667 45.333 59 92.333 97 141c34.667 36 71 58.333 109 67
c11.333 6 33 11.667 65 17c18 12 36 18 54 18zM169.001 1518l-2 -75.999c12 -134.667 28.333 -216 49 -244l32 -86c19.333 -34.667 40.333 -64.667 63 -90l14 -9c38.667 20.667 79.667 58.334 123 113.001l90 88c4.66699 0 31 26.333 79 79c38 33.333 63 70.666 75 111.999
c10.667 37.333 16 72.666 16 105.999l2 49c0 54.667 -16.333 102 -49 142l-109 76l-44 10c-52 0 -94.333 -7 -127 -21c-27.333 0 -62.333 -18 -105 -54c-24.667 -24.667 -44 -51 -58 -79c-32.667 -49.333 -49 -88 -49 -116zM74.001 562l0.000976562 -18.001
c-4.66699 0 -7 -7.66699 -7 -23v-40l3 -32l-3 -7l7 -26l-2 -2l21 -44c32 -45.333 56 -68 72 -68c37.333 -20 74.333 -30 111 -30c0 -2.66699 7.66699 -4 23 -4l54 9v-2l2 2h14c35.333 0 87 24 155 72c19.333 6 64.333 50.667 135 134c9.33301 8.66699 14 18 14 28v3
c-90.667 104.667 -148 167.334 -172 188.001c-54 57.333 -81 88 -81 92c-22.667 18 -49 48.333 -79 91c-10.667 7.33301 -18.334 11 -23.001 11c-12.667 0 -59 -47 -139 -141c-28 -30 -52 -67 -72 -111c-22 -38.667 -33 -66 -33 -82z" />
    <glyph glyph-name="quotesingle" unicode="'" horiz-adv-x="362" 
d="M166 1568c26.667 -15.333 44.333 -37 53 -65c0 -8.66699 7.33301 -26.667 22 -54v-25c-9.33301 -47.333 -36.333 -104.333 -81 -171c-35.333 -35.333 -60.333 -53 -75 -53c-14 0 -22.333 10.333 -25 31h3l-3 3v3l44 75c20.667 38.667 31 71 31 97l-22 87v22
c0 33.333 17.667 50 53 50z" />
    <glyph glyph-name="parenleft" unicode="(" horiz-adv-x="867" 
d="M640 1845c28.667 0 46.332 -7.99805 52.999 -23.998v-8c0 -22.667 -30 -56 -90 -100l-72 -80c-15.333 -13.333 -42.666 -44.333 -81.999 -93c-38 -36.667 -73.333 -82.667 -106 -138c-72.667 -98.667 -110 -159.667 -112 -183c-76 -176.667 -114 -276 -114 -298l-3 -26
h-2l2 -3c-19.333 -76.667 -29 -123.667 -29 -141l-3 -18l3 -51v-10l-3 -114l6 -51v-32c21.333 -86 42.333 -138 63 -156c4 -16 37.667 -62 101 -138c58 -52.667 98 -79.334 120 -80.001c51.333 -28 77 -51 77 -69c-9.33301 -21.333 -22.666 -32 -39.999 -32h-13
c-16.667 0 -64.667 26.667 -144 80c-38.667 26.667 -79.334 71.667 -122.001 135c-45.333 55.333 -74.666 103 -87.999 143c-4 0 -9 19.667 -15 59c-6.66699 9.33301 -14 28.666 -22 57.999l3 14l-8 87l3 53v106c5.33301 53.333 15 104 29 152l13 66
c0 11.333 10.667 46.666 32 105.999c12 15.333 25.333 47.333 40 96l61 135c18.667 39.333 56.667 95.333 114 168c24 47.333 69 104 135 170c3.33301 8.66699 32.666 42.334 87.999 101.001c7.33301 14 49 52.667 125 116z" />
    <glyph glyph-name="parenright" unicode=")" horiz-adv-x="600" 
d="M80 1854c24.667 -6.66699 37.0029 -22.333 37.0029 -47c0 -24 13.667 -54.667 41 -92c12 -20.667 42.667 -62.334 92 -125.001c10.667 -28 31 -67.667 61 -119l72 -200l17 -141l-3 -28v-6l14 -75l3 -72l-3 -8l5 -36c0 -31.333 -5.33301 -75.666 -16 -132.999
c0 -69.333 -10.333 -134.333 -31 -195c0 -14 -18.333 -72.333 -55 -175c0 -23.333 -53.667 -126.666 -161 -309.999c-27.333 -61.333 -56 -92 -86 -92c-21.333 0 -35.333 13 -42 39v5c0 18.667 16.667 49.334 50 92.001c8 20 24.667 45 50 75c20.667 45.333 43 87 67 125
c36.667 66 55 115 55 147c23.333 44 45.666 124.333 66.999 241l16 150c6 5.33301 9 15.666 9 30.999c-7.33301 0 -14 61 -20 183c-2.66699 0 -4.33398 8.33301 -5.00098 25h2l-2 3l2 22c0 29.333 -10 84.666 -30 165.999c0 21.333 -8.33301 43.666 -25 66.999
c-34 101.333 -69.333 173.666 -106 216.999l-75 102c-16 22.667 -40 51.334 -72 86.001c-5.33301 10 -8 19.333 -8 28v8c0 9.33301 8.33301 21.333 25 36l3 -2c3.33301 2.66699 20.666 5.33398 51.999 8.00098z" />
    <glyph glyph-name="asterisk" unicode="*" horiz-adv-x="797" 
d="M253 1619c27.333 0 40.9971 -14.332 40.9971 -42.999v-33l2 -8l-2 -1v-2l2 -30v-5l-2 -2l2 -6l2 2h1c2.66699 0 4 -1.66699 4 -5h2c40.667 32 80.667 60.667 120 86c16.667 21.333 29 32 37 32h6c12.667 0 21.667 -6.66699 27 -20c0 -18 -32.667 -47.667 -98 -89l-66 -50
v-4l29 -3l65 7v-2c28.667 4.66699 50.334 7 65.001 7c9.33301 -4.66699 16.666 -12.667 21.999 -24v-9c0 -20.667 -6.66699 -31 -20 -31h-11l-28 5l-19 -2l-1 2l-50 -5h-34l-5 -6v-3l68 -61l2 -10c0 -10.667 -9.33301 -20.334 -28 -29.001h-2c-7.33301 0 -23.333 14 -48 42
c-3.33301 0 -10.666 5.66699 -21.999 17h-2c-4.66699 -0.666992 -7 -5.66699 -7 -15v-15l7 -72c-11.333 -22 -23.666 -33 -36.999 -33c-12.667 0 -21.667 10.333 -27 31l7 30l-7 31l7 39l-2 9l2 17l-11 7c-40.667 -33.333 -79 -72.666 -115 -117.999
c-7.33301 -6 -14.666 -9 -21.999 -9c-12 2.66699 -18 8.66699 -18 18c0 13.333 13.333 35.666 40 66.999c4 8 14 19 30 33v4h2v-4h2v2l-2 6h-2v-4l-6 5l2 2h-3v-2l-28 2l-22 -2c-38.667 3.33301 -67.667 7.66602 -87 12.999c-10 7.33301 -15 14.333 -15 21v5
c0 14.667 16 22 48 22l39 -7l2 2h24l7 -2l2 2h2l26 -4l37 8h26l7 7v6c-50.667 64.667 -82 97 -94 97l-15 15v10c2.66699 13.333 8.66699 20 18 20c12.667 0 32 -8 58 -24l50 -63v-2l9 2v2l-2 2l4 7l-11 92c0 6.66699 5.33301 14.334 16 23.001zM237.997 1489v-2h4v2h-4z" />
    <glyph glyph-name="plus" unicode="+" horiz-adv-x="1070" 
d="M401 1192c24.667 0 39.001 -16.001 43.001 -48.001l7 -41l-7 -30l2 -18l-2 -86v-76c0 -12.667 8.33301 -20.334 25 -23.001h15l252 -20c14.667 0 28 2.33301 40 7c40.667 -8.66699 61 -22 61 -40v-3c0 -20.667 -22 -35.667 -66 -45l-71 10h-71
c-52.667 8.66699 -103.334 13 -152.001 13h-13c-16 0 -26 -13.667 -30 -41l7 -31v-2l-2 -15l2 -3l-10 -94v-78l-2 -48c6.66699 -15.333 10 -26.333 10 -33v-6c0 -23.333 -19.667 -38.333 -59 -45c-14 0 -25 11.667 -33 35c0 69.333 4.33301 138 13 206l3 73l2 8l-2 10v48
l-16 16l-119 -13h-38l-142 -23h-2c-30.667 6.66699 -46 18.667 -46 36v5c2.66699 25.333 14.667 38 36 38h7l3 -3c20 8.66699 75 16.334 165 23.001l15 -3c91.333 7.33301 137 18.333 137 33l10 61l-3 3l5 61l-2 20l2 43v3l-10 81c0 12.667 12 24.334 36 35.001z" />
    <glyph glyph-name="comma" unicode="," horiz-adv-x="400" 
d="M104 400l12.998 0.00292969c26.667 -20.667 40 -37.334 40 -50.001c10.667 -31.333 18 -47 22 -47l6 -6v-9l-3 -28l3 -16c-10.667 0 -17 -12.333 -19 -37l-31 -69c-5.33301 0 -11.333 -9.33301 -18 -28c-20 -22 -45 -43.667 -75 -65c-11.333 0 -18.666 4 -21.999 12v13
c0 10 11.333 28.667 34 56c0 5.33301 5.33301 15.666 16 30.999c0 13.333 5 22.666 15 27.999l13 50v18c-7.33301 46 -15.666 69 -24.999 69v22l3 3l-3 3v16c4.66699 22.667 15 34 31 34z" />
    <glyph glyph-name="hyphen" unicode="-" horiz-adv-x="950" 
d="M713 768c13.333 0 29.333 -13 48 -39v-12c0 -8 -19.333 -17.667 -58 -29l-29 -2c-6.66699 2.66699 -46 5 -118 7c-96.667 0 -176 -4.66699 -238 -14h-34l-84 -10h-15v5l-19 2c-44.667 -2.66699 -67 -5.66699 -67 -9h-70c-13.333 0 -23 9.66699 -29 29v4
c0 26 24 40.667 72 44l17 -3l43 3h5l53 -3l17 3l43 -3l200 24h145l41 -7l29 7h33z" />
    <glyph glyph-name="hyphen" unicode="&#xad;" horiz-adv-x="950" 
d="M713 768c13.333 0 29.333 -13 48 -39v-12c0 -8 -19.333 -17.667 -58 -29l-29 -2c-6.66699 2.66699 -46 5 -118 7c-96.667 0 -176 -4.66699 -238 -14h-34l-84 -10h-15v5l-19 2c-44.667 -2.66699 -67 -5.66699 -67 -9h-70c-13.333 0 -23 9.66699 -29 29v4
c0 26 24 40.667 72 44l17 -3l43 3h5l53 -3l17 3l43 -3l200 24h145l41 -7l29 7h33z" />
    <glyph glyph-name="period" unicode="." horiz-adv-x="400" 
d="M95 354h24.999c38 -11.333 57 -32.333 57 -63v-59c-1.33301 -16.667 -9.66602 -25 -24.999 -25c-5.33301 -12.667 -14 -19 -26 -19h-56c-23.333 0 -39 18.667 -47 56l-3 32h3l-3 3v3c0 25.333 25 49.333 75 72z" />
    <glyph glyph-name="slash" unicode="/" horiz-adv-x="1200" 
d="M974 1858c16 0 32.001 -10.335 48.001 -31.002v-14c-14.667 -19.333 -39.667 -63.666 -75 -132.999l-111 -180c-88.667 -162.667 -162.667 -286 -222 -370c-8 -30.667 -45.333 -90.667 -112 -180l-50 -97c-6.66699 -18.667 -20.334 -43.667 -41.001 -75l-42 -70l-55 -91
l-56 -89l-80 -144c0 -12.667 -28.667 -62.667 -86 -150c-12 -22.667 -27 -34 -45 -34h-8c-16.667 0 -29.667 13 -39 39c-0 17.333 19.333 50.666 58 99.999c13.333 4.66699 31 36.334 53 95.001c10.667 8 24.667 34.667 42 80c8 8 31 47.667 69 119
c38 50.667 80.667 117.334 128 200.001c17.333 39.333 40.333 81 69 125c16 32 44.667 75.667 86 131c20.667 54.667 47.667 101.667 81 141l100 159c16 36 41.667 82 77 138c0 7.33301 47.333 86 142 236c26 63.333 49 95 69 95z" />
    <glyph glyph-name="zero" unicode="0" horiz-adv-x="1545" 
d="M854 1846l49 -9.00391l3 3h2c20.667 0 82.334 -22.667 185.001 -68l65 -40c22.667 -29.333 55 -65.666 97 -108.999c39.333 -72 69.333 -147 90 -225c14.667 -38 22 -86.667 22 -146c3.33301 0 5 -29 5 -87v-92c-9.33301 -107.333 -21 -190.666 -35 -249.999
c-9.33301 -19.333 -23 -60 -41 -122c-4.66699 -5.33301 -10 -19.666 -16 -42.999l-49 -89c-51.333 -76 -87.333 -125 -108 -147c-8.66699 0 -50.334 -38.667 -125.001 -116c-18 -12.667 -57 -29 -117 -49c-45.333 -32.667 -116.666 -49 -213.999 -49
c-8.66699 -5.33301 -23 -8 -43 -8l-98 13c-34 8 -102.667 39.667 -206 95c-37.333 15.333 -78 39 -122 71c-48.667 50 -78.667 91.333 -90 124c-23.333 28.667 -49.333 87.667 -78 177c-4.66699 0 -14.667 54 -30 162v11c9.33301 50.667 14.666 97 15.999 139
c27.333 110 55.333 200.333 84 271c3.33301 1.33301 14.333 23.666 33 66.999l38 63c14.667 28.667 52.667 79.334 114 152.001c6.66699 22.667 53.667 69.667 141 141c44 34.667 78.333 54.334 103 59.001c31.333 26 95.333 56.667 192 92c6 0 21.333 -6.33301 46 -19z
M632 1696l-29.998 2.99902c-135.333 -52.667 -267.333 -185.334 -396 -398.001c-55.333 -113.333 -85 -191.333 -89 -234c-3.33301 0 -11.666 -29.667 -24.999 -89c-4.66699 0 -7.33398 -11 -8.00098 -33v-62l-5 -43v-11l10 -60l-2 -3v-2
c23.333 -105.333 57.666 -188.666 102.999 -249.999c12.667 -46 63.334 -90.333 152.001 -133c138.667 -66.667 221.667 -100 249 -100c10.667 5.33301 28 8 52 8l2 -2l3 2h3l11 -2c74.667 6.66699 128 15.667 160 27l81 35l3 -3h2c24.667 7.33301 61 36.333 109 87
c54 38 96.333 83.333 127 136l44 67l43 103l33 90c0 18 4.33301 44 13 78c9.33301 56.667 14.666 112 15.999 166c6 10.667 9 28.667 9 54v5l-11 85v81l-30 116c-2.66699 26 -25.334 78.667 -68.001 158c-36 67.333 -96.667 117 -182 149
c-40.667 16.667 -83 30.334 -127 41.001h-33c-86.667 -16.667 -151.667 -34 -195 -52c-2.66699 -4 -10.667 -8.66699 -24 -14z" />
    <glyph glyph-name="one" unicode="1" horiz-adv-x="437" 
d="M165 1830h16.999c16.667 0 31.667 -11.667 45 -35l-2 -13v-19c5.33301 -39.333 8 -98 8 -176l8 -49h-3l3 -8l-8 -38v-40l-3 -79l3 -2l-3 -33v-154c0 -44.667 -3.66699 -104 -11 -178c-10.667 -50.667 -16 -113 -16 -187v-54c0 -14 -8 -66 -24 -156l3 -3l-3 -14v-67
l-6 -30v-19l3 -24c-6 -18 -11.333 -72 -16 -162l3 -33c-13.333 -38 -28.666 -57 -45.999 -57h-6c-20 0 -34.333 16.333 -43 49v32l24 200v68c0 60 10 133 30 219l-3 89l3 76c9.33301 22 14 55.333 14 100c2 0 5.33301 10.667 10 32l-2 22l2 130v35c0 26.667 3 60 9 100v13
l-3 19l3 22l2 151l-13 211c1.33301 41.333 8.33301 62 21 62z" />
    <glyph glyph-name="two" unicode="2" horiz-adv-x="1251" 
d="M641 1853l2 -0.00390625c17.333 0.666992 26 -0.666016 26 -3.99902l38 7c37.333 -5.33301 74.666 -8.33301 111.999 -9c27.333 -12 63.666 -31.667 108.999 -59c46 -36 69.333 -63.667 70 -83c32.667 -52 49.667 -96.333 51 -133l14 -96
c-6.66699 -85.333 -19.334 -145.333 -38.001 -180c-32 -70 -74.333 -138.667 -127 -206c0.666992 -7.33301 -44.666 -58.333 -135.999 -153l-149 -156c-8 -13.333 -53 -57.666 -135 -132.999c-20.667 -32 -101 -118.333 -241 -259c-49.333 -47.333 -73.666 -73 -72.999 -77
l-3 -8l41 -3l41 1l64 -7c70 2.66699 118 8.66699 144 18l170 7h46l33 3c82 -15.333 152.667 -21.666 212 -18.999c24 -12.667 36.333 -26.667 37 -42v-2c0.666992 -18 -19 -31.667 -59 -41h-3c-37.333 10.667 -114 19.334 -230 26.001l-23 -1l-150 -3l-2 2h-3
c-14.667 -5.33301 -67.667 -11.666 -159 -18.999l-49 3h-15l-10 -3c-10.667 2.66699 -26 3.66699 -46 3c-78 -3.33301 -117 -7.33301 -117 -12c-42 -2 -63.667 9.66699 -65 35c-0.666992 24 61 93.667 185 209c34 37.333 73.333 77 118 119l83 92
c16 23.333 51 58.666 105 105.999c14 22 37.667 45 71 69c0 13.333 35 50.333 105 111l143 159c0 4 22.667 35.333 68 94c62 102 91.667 183 89 243c2.66699 0 5 9.33301 7 28l-17 91l2 13c-0.666992 20.667 -22.667 64 -66 130c-48 35.333 -94.667 57 -140 65l-28 -3l-36 6
c-160.667 -14.667 -240.667 -25.667 -240 -33c-35.333 -20.667 -70.666 -46.667 -105.999 -78l-70 -38c-12 -0.666992 -20.333 12.333 -25 39c-0.666992 17.333 18 42 56 74c32 35.333 60 53.333 84 54c18 10.667 49.667 23 95 37l72 3z" />
    <glyph glyph-name="three" unicode="3" horiz-adv-x="1000" 
d="M319 1846h29.001l104 -16c39.333 0 98.333 -31.333 177 -94c54.667 -72.667 82 -112 82 -118c11.333 -16.667 19.666 -57.334 24.999 -122.001l3 -3v-2h-3l3 -3v-23l2 -26c-6.66699 -50.667 -15 -84.667 -25 -102c0 -7.33301 -20.667 -35.333 -62 -84
c-36.667 -40 -89.334 -81.667 -158.001 -125l-125 -44v-10l5 -5h2v8c6 -5.33301 25 -10.666 57 -15.999c16 -10.667 41.333 -20 76 -28c36 -13.333 61.667 -30.333 77 -51c48.667 -33.333 87 -74.333 115 -123c28.667 -41.333 43 -84.666 43 -129.999
c15.333 -34 23 -71.667 23 -113v-40c-0.666992 -24.667 -16.667 -72.667 -48 -144c-22.667 -40 -47.334 -72.333 -74.001 -97c-50 -53.333 -97 -84 -141 -92c-88 -28.667 -146 -43 -174 -43h-20c-68.667 15.333 -119 24.666 -151 27.999
c-51.333 10 -84.666 22.667 -99.999 38c-40.667 15.333 -61 33.333 -61 54v5c6 11.333 14.667 18.333 26 21c26.667 -10.667 54.667 -17.667 84 -21c19.333 -13.333 71.333 -27 156 -41c4.66699 -4 15.667 -7.33301 33 -10c79.333 11.333 139 25.666 179 42.999
c48.667 12 90.334 41 125.001 87c39.333 29.333 68.333 88.333 87 177v56c-10.667 72.667 -21.667 125.334 -33 158.001c-26.667 52.667 -53 88.667 -79 108c-27.333 32 -63.333 55 -108 69c-59.333 18.667 -113 28 -161 28l-56 -3h-43l-52 -7h-2c-18 0 -29 11.667 -33 35
c0 25.333 22 43.333 66 54c10.667 8 30.334 16.667 59.001 26l59 28c46.667 23.333 104.667 47 174 71c42 26 82.667 60.333 122 103c33.333 36 54 70.667 62 104l-3 21l3 56l-3 10l3 16c0 59.333 -16.333 104.333 -49 135c-36.667 46.667 -72.334 75.667 -107.001 87
c-26.667 25.333 -85.667 38 -177 38c-94 0 -157.667 -19.667 -191 -59c-20.667 -15.333 -37 -23 -49 -23c-4 0 -11.667 7 -23 21v20c0 19.333 26.333 44 79 74c0 14.667 57 27.667 171 39zM363.001 1082v-8h2v8h-2z" />
    <glyph glyph-name="four" unicode="4" horiz-adv-x="1000" 
d="M237 1850l3.00195 -0.000976562c29.333 -4 44 -18.667 44 -44l-20 -87l3 -7l-40 -168c0 -17.333 -9 -54.333 -27 -111l-15 -82c-19.333 -55.333 -39 -122.666 -59 -201.999c0 -6 -12.333 -39 -37 -99v-5c8.66699 -8 15.334 -12 20.001 -12c24 8 58.333 12 103 12
c49.333 13.333 94.666 22.333 135.999 27v-2c94 9.33301 141 20 141 32v5h3l-3 61v57l-2 82l2 52l-2 12c0 22.667 6.33301 37.334 19 44.001h13c14 0 28 -12.333 42 -37l-3 -17l5 -131v-111c8 -14.667 27 -22 57 -22h47c54 3.33301 87.667 6.66602 101 9.99902
c34.667 -9.33301 52 -26 52 -50c0 -16 -9 -27.333 -27 -34l-37 2l-32 -2l-13 2l-27 -2l-74 2l-25 -2l-7 2l-15 -17v-131c0 -20 -3.33301 -40.667 -10 -62l3 -2l-5 -42l2 -111l-2 -149v-32l-3 -74l3 -24c-5.33301 -20 -8 -42.333 -8 -67l10 -52v-12
c0 -27.333 -18 -44 -54 -50c-20.667 0 -32.334 18.333 -35.001 55l3 37l-3 44l8 52v133l2 37l-2 30v5l10 54l-8 42l3 3v2l-3 13l3 34v35l10 57v126l2 34c-1.33301 6 -6.33301 11 -15 15c-44 -4.66699 -81.667 -7 -113 -7h-10l-190 -35l-57 -5l-22 2l-40 -9h-7
c-18.667 0 -30.334 13 -35.001 39v5l2 3l-2 2v2l64 203l50 161l39 182c23.333 82 39 153 47 213c10 24 15 47.667 15 71c8 10 15.333 15 22 15z" />
    <glyph glyph-name="five" unicode="5" horiz-adv-x="1200" 
d="M938 1838c16 0 27.3271 -12.667 33.9941 -38c0 -12 -17.667 -24 -53 -36l-113 2l-221 -2h-20l-26 2l-111 -12l-2 2l-3 -2h-9l-3 2l-2 -2h-10c-68.667 -6.66699 -103 -14.667 -103 -24l-10 -41l3 -17v-53c0 -11.333 -2.66699 -24 -8 -38l3 -12l-5 -65l2 -20l-2 -45v-154
l5 -56l-5 -50c0 -10 5.66699 -17.333 17 -22c8.66699 10.667 58.334 28.334 149.001 53.001c0 6.66699 35.333 11.667 106 15c85.333 0 137.333 -8 156 -24c30.667 -7.33301 67 -31.666 109 -72.999l26 -26c56 -58 84 -108.667 84 -152c14.667 -18.667 22 -70 22 -154v-41
l-5 -84l3 -17c0 -14.667 -10.667 -64.334 -32 -149.001c-26 -62 -50.667 -102 -74 -120c-67.333 -63.333 -122.666 -104.333 -165.999 -123c-20.667 -14 -68 -30 -142 -48c0 -4 -35.333 -8.66699 -106 -14c-125.333 8.66699 -188 17.334 -188 26.001
c-91.333 26 -147.333 59 -168 99c-34 56 -54 92.667 -60 110l2 3v5h-5l3 14c-6.66699 15.333 -10 27.333 -10 36c16.667 30.667 32.667 46 48 46c8 0 15.333 -27.333 22 -82c0.666992 -14 18.334 -47.667 53.001 -101c29.333 -18.667 63 -36.334 101 -53.001l125 -31h5v2
l41 -2h9c72 0 128.333 8.66699 169 26c18 1.33301 57.333 20 118 56c28.667 16.667 57.334 39.667 86.001 69c32 26.667 55.333 64.667 70 114c4.66699 5.33301 13.334 39 26.001 101v93l10 56l-2 2l2 17v17c-6.66699 28.667 -10.667 59 -12 91
c-21.333 65.333 -40.666 104.666 -57.999 117.999c-60 68 -109 104 -147 108c-6 4.66699 -18 8.66699 -36 12v3h-4v-5l-39 7c-88 0 -132 -5.66699 -132 -17c-40 -8 -85 -27 -135 -57c-40.667 -30.667 -72 -47.667 -94 -51c-14 0 -22.667 10.333 -26 31l14 193v99l-2 24h2
l-2 2v36l2 10l-2 7l2 34l-2 31l12 113l-3 53l5 36c0 9.33301 -14.333 17.333 -43 24c-11.333 14 -17 24.333 -17 31v3c0 22 21 36.333 63 43c0 2.66699 11 6 33 10h10l26 -5l118 14l15 3h33l53 7h195l15 2l12 -2l84 5l41 -5h17z" />
    <glyph glyph-name="six" unicode="6" horiz-adv-x="1200" 
d="M569 1854l10.0029 0.000976562c16.667 0 27.334 -11.667 32.001 -35c-2.66699 -12.667 -29.334 -34.334 -80.001 -65.001c-112.667 -114.667 -173.334 -184.667 -182.001 -210c-64.667 -84 -110.334 -159.667 -137.001 -227c-38 -55.333 -57 -96.666 -57 -123.999
c-8.66699 -14 -17 -42.333 -25 -85c-20 -46.667 -30 -99 -30 -157c-8.66699 0 -13.667 -40 -15 -120l7 -5c74 76 132.333 124.333 175 145c28 24 86.333 50.667 175 80c38 16 72.667 24 104 24l3 -2h2l20 5h38l102 -13c43.333 -14 91.666 -45.333 144.999 -94
c21.333 -22 57 -72.667 107 -152c18 -34.667 31.333 -79 40 -133c3.33301 0 5 -18.333 5 -55c-10 -34 -15 -64.667 -15 -92c-35.333 -84 -68.666 -139.667 -99.999 -167c-34 -32.667 -73 -61.667 -117 -87c-26 -20.667 -66 -37.334 -120 -50.001
c-36 -14.667 -85 -26.334 -147 -35.001h-5l-23 2l-22 -2c-96.667 9.33301 -145 17.666 -145 24.999c-46.667 20 -100.667 53.333 -162 100c-46.667 40 -70 72.333 -70 97c-4 5.33301 -12.333 30.333 -25 75c-12.667 12.667 -28.334 65 -47.001 157l-10 107l10 70v32l2 3
l-2 2c0 25.333 11.667 94.333 35 207c0 10 13.333 51 40 123c0 34.667 18.333 79.334 55 134.001c0 6.66699 20 46.667 60 120c64.667 96.667 107.667 158.334 129 185.001c113.333 130.667 184 199.667 212 207c6.66699 6.66699 16 10 28 10zM85.0029 674.001l16.998 -87
c0 -29.333 6.66699 -58.666 20 -87.999c24.667 -59.333 51.334 -101 80.001 -125l85 -57c48.667 -23.333 77.667 -35 87 -35c52 -1.33301 92 -5.33301 120 -12l82 17c29.333 11.333 62.666 20.666 99.999 27.999c56.667 24 117.334 64.667 182.001 122
c43.333 58.667 65 105.334 65 140.001c5.33301 2.66699 10.333 29 15 79l3 8c-12 36 -20.333 71.667 -25 107c-45.333 74 -77 121.333 -95 142c-32.667 36 -66 59.333 -100 70c-15.333 10 -28.666 15 -39.999 15h-42l-53 10c-62.667 -8 -117.334 -21.333 -164.001 -40
c-16 0 -61 -21.667 -135 -65c-31.333 -18.667 -69.666 -53.334 -114.999 -104.001c-58 -58 -87 -99.667 -87 -125z" />
    <glyph glyph-name="seven" unicode="7" horiz-adv-x="1200" 
d="M915 1854c16.667 0 30 -13.6699 40 -41.0029v-15c-21.333 -25.333 -46.666 -92.666 -75.999 -201.999c-32.667 -98 -49 -150.667 -49 -158c-7.33301 0 -12.333 -28.333 -15 -85c-4.66699 -8.66699 -7.33398 -18 -8.00098 -28l-61 -204l-3 -18l16 -13l2 3h95
c83.333 8 132.666 16.333 147.999 25c32 0 54 -12 66 -36v-10c0 -18.667 -23 -33 -69 -43l-23 8l-56 -11h-38c-12 0 -21.333 -1.66699 -28 -5l-8 3l-13 -3v3l-2 -3h-3l-23 3c-58 -10 -87 -20.333 -87 -31c-13.333 -12 -24.333 -43.333 -33 -94
c-18 -53.333 -27.333 -95.333 -28 -126c-15.333 -82 -26.333 -133 -33 -153c-10 0 -15 -39 -15 -117c-4 0 -10 -36 -18 -108l-23 -158c-18 -12 -35 -18 -51 -18h-6c-14.667 0 -23 11 -25 33c0 49.333 7.66699 96.333 23 141l18 97c0 54.667 8.33301 108.334 25 161.001
c8.66699 25.333 16.334 63.666 23.001 114.999c4 4.66699 10 37 18 97c10.667 23.333 23.667 65 39 125v3l-16 10l-168 -5l-3 2h-2l-11 -2h-23c-13.333 8 -20 19 -20 33v2c7.33301 39.333 20 59 38 59l51 -23c116 6.66699 174 12.667 174 18c7.33301 0 25.333 53.667 54 161
c20 51.333 35.333 113.333 46 186l48 156c7.33301 14.667 13.333 40.334 18 77.001c17.333 36 28.333 65.667 33 89c0 6.66699 -5 12 -15 16l-20 -3l-39 8l-122 -10h-29l-38 2l-102 -18c-40.667 -6.66699 -100.334 -12.667 -179.001 -18
c-9.33301 -4.66699 -18.666 -7 -27.999 -7h-20l-123 -18c-88.667 0 -133 6 -133 18l-5 15v8c-0 21.333 14.333 35 43 41l44 -11h92c28.667 10.667 84.667 19.334 168 26.001h34l33 5v-3l25 6v-3l72 13l2 -3h3l15 3h8v5c78 4 138.333 10 181 18l29 -3l56 5l64 -2z" />
    <glyph glyph-name="eight" unicode="8" horiz-adv-x="1000" 
d="M493 1839l82 0.00195312c20.667 0 53 -9.33301 97 -28c55.333 -50 86.666 -94 93.999 -132c22 -59.333 33 -101 33 -125l-7 -31l3 -24c-4.66699 -12 -8 -36.333 -10 -73c-18.667 -52 -40.667 -92 -66 -120c-6.66699 -18 -26.334 -45.667 -59.001 -83
c0 -2.66699 -26.667 -34 -80 -94c-9.33301 -14 -29 -36 -59 -66v-5c0 -10 18 -24 54 -42l64 -61c46 -54.667 72.667 -95 80 -121c30 -48.667 45 -85.667 45 -111c12 -16 21.333 -50.333 28 -103c3.33301 0 5.66602 -6.33301 6.99902 -19h3l-3 -19l3 -19
c-17.333 -105.333 -35.333 -167.333 -54 -186c-18.667 -24 -40.667 -49.333 -66 -76c-16 -16 -53 -40.333 -111 -73c-49.333 -18.667 -96.666 -28 -141.999 -28h-66c-82.667 8 -133.667 20.667 -153 38l-97 49c-5.33301 8 -25.666 26 -60.999 54
c-21.333 39.333 -33 73.333 -35 102c0 66 10 121.667 30 167c2 21.333 30.333 69.333 85 144c18.667 32.667 54 72.667 106 120l156 149c0 14.667 -38.667 40.667 -116 78c-51.333 39.333 -97.666 70.666 -138.999 93.999c-66.667 64 -106 112 -118 144
c-14 22 -21 38.333 -21 49v59c0 38 22.667 94 68 168c99.333 103.333 197 167.666 293 192.999c75.333 20.667 119.333 31 132 31zM64 1433l-0.000976562 -9l-3 -3c5.33301 -39.333 27.333 -81.666 66 -126.999c32 -32.667 73.667 -64 125 -94c62 -48.667 110 -77 144 -85
c4 -7.33301 21.333 -15.333 52 -24c15.333 4.66699 49 40 101 106c49.333 48.667 88 97.667 116 147c42.667 43.333 64 99 64 167c0 44 1.33301 66 4 66c-21.333 86 -48.666 141 -81.999 165c-29.333 14 -49 21 -59 21h-33l-47 5c-64.667 0 -126 -13.333 -184 -40
c-46.667 -14.667 -109.667 -59.334 -189 -134.001c-50 -68 -75 -121.667 -75 -161zM74.999 462.002l-0.000976562 -3c7.33301 -44 19.333 -73.667 36 -89c32 -27.333 75.333 -52.666 130 -75.999c24 -17.333 56 -26 96 -26l12 -2l47 5l17 -3
c60 3.33301 99.333 9.66602 118 18.999c59.333 24 115 72.667 167 146c12 22 20 50.333 24 85c2.66699 0 5 24.333 7 73l-5 40l2 3v2l-40 120l-52 102c-66 80 -107.667 120 -125 120l-40 17c-7.33301 0 -33.333 -21.333 -78 -64c-131.333 -122 -202.666 -195 -213.999 -219
c-16 -12.667 -35.667 -46.667 -59 -102c-12 0 -26.333 -49.333 -43 -148z" />
    <glyph glyph-name="nine" unicode="9" horiz-adv-x="1153" 
d="M583 1856l26.998 -2.00098l68 2c43.333 -1.33301 97.333 -15.666 162 -42.999l41 -38l11 -3h5c12 9.33301 21 14 27 14c22.667 0 36.334 -21.667 41.001 -65v-27l-24 -177c0 -10 -9.33301 -45 -28 -105c-3.33301 -30 -5 -71.667 -5 -125h-3l3 -3v-2
c0 -78.667 -6.33301 -137.667 -19 -177v-65l-3 -2l3 -3v-3c0 -80.667 -4.33301 -160 -13 -238l-3 -87l3 -33c-2 -42 -6.66699 -79.667 -14 -113v-19l-3 -122l3 -27l-3 -82v-38l6 -21v-3c0 -26.667 -18.333 -43 -55 -49h-10c-8.66699 4 -17 11.333 -25 22v160l3 65l-3 2v3
l17 258l-3 2l3 19v33c8.66699 52 13 100.667 13 146l-3 36l14 70v30l3 11l-3 11v16l3 21l-3 11c2 44.667 6.33301 75.334 13 92.001l-2 3v3l2 19l-5 5v3h3l2 -3h3v3l-5 5h-11c-3.33301 -30.667 -27.666 -70.334 -72.999 -119.001c-66 -63.333 -113 -101.333 -141 -114
c-73.333 -50.667 -132 -76 -176 -76l-101 -16h-5c-25.333 0 -63.333 11 -114 33c-26.667 14 -60 42.667 -100 86c-38 42 -59.667 77.333 -65 106c-25.333 38 -38 80.667 -38 128l-3 19c5.33301 64.667 13.333 107 24 127l87 163l87 111c64 48.667 99.333 73 106 73l105 51
c80.667 25.333 138.667 38 174 38zM83.998 1339l3 -3v-3c-4 -5.33301 -6.66699 -16 -8 -32l5 -55l-3 -8c3.33301 -12.667 7 -19 11 -19l-3 -2v-3c22.667 -52 49 -96.333 79 -133c53.333 -54 102 -81 146 -81l74 5h13c40 3.33301 98 30.333 174 81
c62.667 46 108.667 86 138 120c79.333 137.333 119 217.666 119 240.999l27 92v30l14 70l-3 25v11l6 16c0 6 -12.667 17 -38 33c-26 32 -70.333 48 -133 48c0 3.33301 -12.667 7 -38 11h-79c-101.333 -14 -180 -37.333 -236 -70
c-35.333 -15.333 -70.333 -42.666 -105 -81.999c-60 -65.333 -97 -122 -111 -170c-32.667 -54 -50 -94.667 -52 -122zM78.998 1255v-6h2v6h-2z" />
    <glyph glyph-name="colon" unicode=":" horiz-adv-x="445" 
d="M167 1183l3.00098 -0.000976562c48.667 -14 73 -37.333 73 -70v-45c0 -29.333 -27.333 -52 -82 -68h-5c-64 12 -96 34.667 -96 68v39c0 45.333 26.333 68 79 68c5.33301 4.66699 14.666 7.33398 27.999 8.00098zM167.001 782.999l3 -0.00292969
c48.667 -13.333 73 -36.666 73 -69.999v-45c0 -29.333 -27.333 -52 -82 -68h-5c-64 12.667 -96 35.334 -96 68.001v39c0 45.333 26.333 68 79 68c4.66699 4.66699 14 7.33398 28 8.00098z" />
    <glyph glyph-name="semicolon" unicode=";" horiz-adv-x="520" 
d="M204 932c30.667 -6.66699 56.998 -26.332 78.998 -58.999v-43l3 -36c-28 -37.333 -51 -56 -69 -56l-29 -6l-63 20c-26 17.333 -39 33.666 -39 48.999l3 23l-6 26c8.66699 44 30.334 66 65.001 66c18.667 0 36.334 5.33301 53.001 16h3zM170.998 335.002h7
c36.667 0 55 -45 55 -135l-22 -62l-27 -53l-56 -52c-11.333 0 -22 -6.66699 -32 -20c-6 0 -13.667 -4.33301 -23 -13h-7c-24 9.33301 -36 16 -36 20v19c0 4 13 13 39 27c35.333 34 58.333 69 69 105l10 19l-3 69v20c0 27.333 8.66699 46 26 56z" />
    <glyph glyph-name="semicolon" unicode="&#x37e;" horiz-adv-x="520" 
d="M204 932c30.667 -6.66699 56.998 -26.332 78.998 -58.999v-43l3 -36c-28 -37.333 -51 -56 -69 -56l-29 -6l-63 20c-26 17.333 -39 33.666 -39 48.999l3 23l-6 26c8.66699 44 30.334 66 65.001 66c18.667 0 36.334 5.33301 53.001 16h3zM170.998 335.002h7
c36.667 0 55 -45 55 -135l-22 -62l-27 -53l-56 -52c-11.333 0 -22 -6.66699 -32 -20c-6 0 -13.667 -4.33301 -23 -13h-7c-24 9.33301 -36 16 -36 20v19c0 4 13 13 39 27c35.333 34 58.333 69 69 105l10 19l-3 69v20c0 27.333 8.66699 46 26 56z" />
    <glyph glyph-name="less" unicode="&#x3c;" horiz-adv-x="800" 
d="M495 1402l16 0.000976562c20 -11.333 30 -23.333 30 -36c0 -7.33301 -13.667 -25 -41 -53c-13.333 -26.667 -40 -71.334 -80 -134.001c-6 -16.667 -32.667 -50.334 -80 -101.001c0 -5.33301 -31 -41 -93 -107l-64 -84l-96 -110c0 -13.333 34 -43.666 102 -90.999
c42.667 -39.333 75.667 -64.666 99 -75.999c28 -18 47 -33.667 57 -47c10.667 -4.66699 39.334 -26 86.001 -64c40.667 -16 66.667 -35 78 -57v-7c-21.333 -23.333 -37.333 -35 -48 -35c-6.66699 0 -25.667 14.667 -57 44c-26.667 11.333 -72.334 46.333 -137.001 105
c-19.333 7.33301 -45.333 26.333 -78 57c-25.333 14.667 -56.333 39 -93 73c-39.333 22 -69 44.667 -89 68c-4.66699 1.33301 -7 7.66602 -7 18.999v7c0 11.333 13.667 28.666 41 51.999c18 18 34 37 48 57c13.333 12.667 41.333 46.334 84 101.001
c38 36 62.667 64.667 74 86c41.333 40 71 75 89 105c20 22 57 80.667 111 176c11.333 18.667 27.333 36 48 52z" />
    <glyph glyph-name="equal" unicode="=" horiz-adv-x="957" 
d="M30 1017c31.333 0 69.666 -4 114.999 -12c196.667 0 318.667 -6.33301 366 -19h15l130 16h21c21.333 0 35.333 -15.333 42 -46c0 -16 -24 -32 -72 -48h-185c-82.667 0 -153 5 -211 15l-103 -6l-3 3l-36 -6c-59.333 6.66699 -92.666 17.667 -99.999 33l-9 12v21
c0 16.667 10 29 30 37zM169 696h144.999l61 -9h33c24.667 0 48.667 3 72 9l3 -3l22 3l87 -3l67 3c22 -6.66699 33 -20.667 33 -42v-15c0 -14 -26.333 -27 -79 -39h-3l-102 9l-76 -9h-54c-27.333 0 -49.666 2 -66.999 6l-36 -3l-39 3l-70 -6h-112c-26 2 -39 15 -39 39
c0 27.333 11 43.333 33 48h3l55 -3z" />
    <glyph glyph-name="greater" unicode="&#x3e;" horiz-adv-x="800" 
d="M38 1417c32 0 59.665 -23 82.998 -69c28.667 -34 76 -80.333 142 -139c9.33301 -10 43.333 -34.667 102 -74c14.667 -13.333 36 -29 64 -47c35.333 -30.667 59 -58.334 71 -83.001c10.667 -11.333 24.334 -33.666 41.001 -66.999l54 -78v-7c0 -16 -30 -43.667 -90 -83
c-32 -35.333 -59 -56.666 -81 -63.999c-24 -24 -65.667 -58.667 -125 -104c-18 -22 -39.333 -38.667 -64 -50l-71 -59l-86 -74c-15.333 -12.667 -29.333 -19 -42 -19h-3c-14 0 -25 10.333 -33 31c5.33301 20.667 40 54 104 100c13.333 17.333 41 38.666 83 63.999l60 47
l149 128c14.667 0 47.667 29.333 99 88v7c-24 56 -46.667 98.667 -68 128c-63.333 66 -107.666 103 -132.999 111c-24.667 12 -80.667 59.667 -168 143l-81 90c-9.33301 15.333 -17.333 33.333 -24 54c1.33301 7.33301 7 16 17 26z" />
    <glyph glyph-name="question" unicode="?" horiz-adv-x="904" 
d="M296 1846l18.0029 0.00195312c110.667 -8.66699 166 -21.667 166 -39c13.333 0 39 -14 77 -42c10.667 0 37.667 -27 81 -81l29 -106l3 -10v-18l4 -49c-5.33301 -37.333 -25.333 -81 -60 -131c-6 -4 -14.333 -19.333 -25 -46c-6 -0.666992 -17.667 -12.334 -35 -35.001
c-28.667 -23.333 -51 -35 -67 -35c-16.667 -26 -36.667 -39 -60 -39c-13.333 -17.333 -33.333 -30.333 -60 -39c-19.333 -10 -32.333 -30 -39 -60c-4.66699 -0.666992 -9.33398 -6.33398 -14.001 -17.001l4 -14c-4.66699 -77.333 -9.33398 -123.333 -14.001 -138v-39l3 -158
l-28 -18h-28l-18 -3c-14 22.667 -21 38 -21 46v3c6 8 10.667 24.333 14 49l-4 57l4 222l14 39v3l-3 14c15.333 49.333 37.666 74 66.999 74c13.333 14.667 41.333 27.667 84 39c6.66699 11.333 33.667 29 81 53c28 15.333 42 27 42 35l15 21c17.333 14.667 31.333 37 42 67
c10 0 18.333 22.333 25 67c0 12 -2.66699 18 -8 18l4 25v7c-2.66699 33.333 -20.334 73 -53.001 119l-109 64c-10 4.66699 -29 7 -57 7h-70c-31.333 0 -58.333 -13 -81 -39c-22.667 0 -44 -11.667 -64 -35l-17 -14h-25c-18.667 14 -28 27 -28 39v7c0 26.667 18.667 49 56 67
c0.666992 4 25.334 16.667 74.001 38c0 6 27 14.333 81 25zM321.003 408.002c24 0 52.332 -23.334 84.999 -70.001v-8c-4.66699 -60.667 -19 -91 -43 -91c0 -7.33301 -17.333 -14.333 -52 -21c-7.33301 -12 -14.666 -18 -21.999 -18l-21 7l-38 -3h-8
c-51.333 10.667 -77 27 -77 49c-7.33301 0 -12 9.33301 -14 28l3 18l-3 17c0 16.667 17.667 35.667 53 57l35 10h3l29 -7h3c20.667 16.667 43 27.334 67 32.001zM250.002 323.001l-4 -10c5.33301 -14 10.333 -21 15 -21h7c9.33301 4.66699 14 11.667 14 21l-18 10h-14z" />
    <glyph glyph-name="at" unicode="@" horiz-adv-x="1200" 
d="M515 1400l63.002 0.00292969c54 -10.667 111.333 -43 172 -97c44.667 -40 80 -82.333 106 -127c20 -36.667 30 -69 30 -97c6 0 9.66699 -31 11 -93c0 -50.667 -12 -94.334 -36 -131.001c-16.667 -33.333 -50 -63.333 -100 -90l-52 -11c-64.667 0 -106 24 -124 72
c-14.667 27.333 -22 43.333 -22 48h-5c-6 -4 -19.667 -27.667 -41 -71c-30.667 -34 -69 -58 -115 -72l-31 -9c-26.667 2 -53.334 15 -80.001 39s-40 63 -40 117c13.333 66.667 37.333 121.667 72 165c20 26 42 43.333 66 52c26 12 43.333 18 52 18h72
c18.667 0 51.667 -21 99 -63c12 -18.667 18 -40 18 -64l-6 -40v-23c0 -34.667 13.333 -65.334 40 -92.001c4 -3.33301 17.667 -7.33301 41 -12c36 0 73.667 27.333 113 82c12 34.667 18 56.334 18 65.001v30l2 24l-2 18l2 3c-6.66699 5.33301 -14 31.666 -22 78.999
c-17.333 40 -37 70 -59 90c-52 59.333 -91.333 92.666 -118 99.999c0 10 -32.333 19 -97 27h-11l-14 -3l-2 3l-77 -21c-81.333 -28.667 -154.333 -70 -219 -124c-64.667 -66 -98.667 -112.667 -102 -140c-9.33301 -12.667 -23.333 -55 -42 -127
c-2.66699 0 -4.33398 -6.66699 -5.00098 -20l2 -18l-2 -23c0 -53.333 9 -99 27 -137c2.66699 -14.667 17 -45 43 -91c10 -24.667 34 -51 72 -79c58 -18 100.333 -27 127 -27c98.667 0 171 20.333 217 61l38 7c15.333 -4 23 -11.667 23 -23v-7
c0 -25.333 -40.667 -54.666 -122 -87.999c-26.667 -7.33301 -58.334 -13.333 -95.001 -18l-11 3l-37 -5v2l-2 -2h-4c-68.667 9.33301 -127.667 26.666 -177 51.999c-41.333 29.333 -72.666 67 -93.999 113c-21.333 27.333 -41.666 77 -60.999 149l-14 93
c0 10.667 1.66699 16 5 16l-3 2c7.33301 58 19.333 107 36 147c5.33301 28 25.666 68.667 60.999 122l61 72l77 61c4.66699 0 40 20.333 106 61c32.667 16 78 31 136 45c10 4.66699 22 7 36 7zM314.002 880.003c0 -44.667 9.66797 -72.335 29.001 -83.002l21 -9h2
c47.333 0 91 33.667 131 101c27.333 54.667 46.333 99.334 57 134.001c-18.667 22.667 -35.334 34 -50.001 34l-14 -3l-34 3c-27.333 0 -58 -19.667 -92 -59c-22 -35.333 -38.667 -74.666 -50 -117.999z" />
    <glyph glyph-name="A" unicode="A" horiz-adv-x="1400" 
d="M622 1815c27.333 -15.333 41.002 -31.9971 41.002 -49.9971c54.667 -120.667 86.667 -198.667 96 -234c17.333 -20.667 32.666 -52 45.999 -94c21.333 -46.667 38.333 -99 51 -157c42.667 -124.667 79 -212 109 -262l10 -53c9.33301 -19.333 23.666 -58.333 42.999 -117
c8 -13.333 17.333 -38.666 28 -75.999c56.667 -132.667 96.334 -239.334 119.001 -320.001l56 -145c12 -10.667 18 -27.667 18 -51c-4 -26.667 -16.667 -40 -38 -40c-30 0 -52 35.333 -66 106c-18.667 55.333 -35.667 98.666 -51 129.999l-28 104
c-12 20.667 -29 60.334 -51 119.001c-12.667 15.333 -30.334 65.333 -53.001 150c-10 17.333 -27 60.666 -51 129.999c-19.333 18.667 -65 28 -137 28c-98 10 -173.333 15 -226 15c-32 -8.66699 -59 -13 -81 -13h-74c-20.667 0 -39 -29.667 -55 -89
c-4.66699 -7.33301 -21 -55.666 -49 -144.999l-45 -111c-12 -12 -27.333 -51 -46 -117c-16.667 -36 -32 -76.667 -46 -122c-10 -16.667 -19.333 -39.334 -28 -68.001c-20 -14.667 -35 -50.334 -45 -107.001l-21 -25c-32 0 -48 11.667 -48 35l28 99c0 12 19.333 57 58 135
c24 80 58 164.667 102 254l53 159l46 117c0 25.333 8.33301 52.666 25 81.999l97 271c16.667 32 43.667 111.667 81 239c28 115.333 48.333 173 61 173c9.33301 33.333 26.333 50 51 50h20zM602.002 1709c-25.333 -70.667 -38 -111.333 -38 -122
c-12 -52 -44.333 -147.667 -97 -287c-4.66699 -6 -13 -33 -25 -81c-5.33301 -8.66699 -21.333 -57 -48 -145c0 -5.33301 5 -10.333 15 -15l167 12h38l11 3c83.333 -12 155 -18 215 -18c5.33301 0 11.333 5 18 15l-56 135l-28 89c0 31.333 -33 118.333 -99 261
c-23.333 73.333 -44.333 124.333 -63 153h-10z" />
    <glyph glyph-name="B" unicode="B" horiz-adv-x="1000" 
d="M283 1858l78.9971 0.00195312l84 -28h25c0 -3.33301 14.333 -10 43 -20c18.667 -2.66699 46 -23 82 -61c34.667 -26 59.334 -55 74.001 -87c31.333 -40 54.333 -100 69 -180v-74c-10.667 -51.333 -26 -93 -46 -125c-41.333 -59.333 -94 -106 -158 -140l-135 -77l-3 -10
v-2c36 -14 81 -39.667 135 -77c14 -2 54 -42.667 120 -122c64.667 -102 97 -165.667 97 -191c18.667 -69.333 28 -127 28 -173c-14 -62.667 -38 -113.667 -72 -153c-48 -56.667 -90.333 -91.334 -127 -104.001c-49.333 -20.667 -96.666 -31 -141.999 -31l-8 -3
c-43.333 0 -87.666 6 -132.999 18c-18 0 -59.333 5.33301 -124 16l-95 20c-40.667 0 -61 10.333 -61 31c-8.66699 0 -13.667 34.667 -15 104h3l-3 2v278l13 74l-3 2l3 13v8l-3 18l5 102l-2 53c8 28.667 12 49 12 61c0 90 3.66699 142 11 156l-3 2
c13.333 119.333 20 201.666 20 246.999v89l-2 21l2 20v110c0 83.333 13 136.666 39 159.999l18 5l2 -2h3c66 30.667 122 47.334 168 50.001zM129.997 1670l-0.00195312 -63.999l-3 -23l3 -2l-3 -18v-38l-7 -133l2 -35l-5 -171c-8.66699 -18.667 -13 -37.334 -13 -56.001v-69
c5.33301 -8 11.333 -12 18 -12c6 6 32.333 13.333 79 22c56 24 104.333 40.333 145 49c40 22 75.667 39 107 51c17.333 16 46.333 34.667 87 56c76.667 68 115 119.667 115 155c8 20.667 12 38.667 12 54v28c-17.333 91.333 -35 144 -53 158
c-27.333 48.667 -59.666 80.667 -96.999 96c-26 24.667 -67.667 42.667 -125 54c-18 10 -38.333 15 -61 15h-20c-67.333 0 -121.666 -14.333 -162.999 -43c-12 -30 -18 -54.667 -18 -74zM86.9951 898.003c4.66699 -18.667 6.99902 -34.666 6.99902 -47.999l-15 -145l2 -3
c-2 -35.333 -4.33301 -53 -7 -53l2 -3v-10h-5l5 -33h-5v-10h5l3 -28l-3 -13l3 -112v-110c5.33301 0 8 -2.33301 8 -7c6 -6.66699 17 -10 33 -10c56.667 -20.667 123.667 -31 201 -31c0 -8 32.333 -14 97 -18v5h2l21 -2c6.66699 0 29.334 7.66699 68.001 23
c39.333 0 78.666 24.333 117.999 73c48.667 51.333 73 105 73 161c0 34 -9.33301 78 -28 132c-4.66699 46.667 -43.667 115.667 -117 207c-44 49.333 -97.333 87.333 -160 114c-17.333 10.667 -29.333 16 -36 16h-33l-53 10
c-47.333 -8.66699 -103.666 -23.334 -168.999 -44.001c-5.33301 0 -11 -20.333 -17 -61z" />
    <glyph glyph-name="C" unicode="C" horiz-adv-x="1200" 
d="M878 1850c80.667 -4.66699 121.002 -20.6709 121.002 -48.0039l2 -8c-6.66699 -18 -16.334 -27 -29.001 -27h-14l-45 8c-24 -5.33301 -70.333 -8.66602 -139 -9.99902c-131.333 -38.667 -197 -62.667 -197 -72c-40 -11.333 -100.667 -49.666 -182 -114.999
c-86.667 -86.667 -131 -137.334 -133 -152.001c-85.333 -139.333 -129 -223 -131 -251c-10.667 -16 -26 -76.667 -46 -182v-53l-8 -78v-5l11 -75l-3 -2v-3c9.33301 -63.333 22.666 -116.666 39.999 -159.999c0 -11.333 23.333 -56 70 -134
c44 -56.667 86.667 -98.334 128 -125.001c63.333 -37.333 100 -56 110 -56c30.667 -10.667 64.334 -18 101.001 -22c63.333 4 109.666 11.333 138.999 22c46.667 18 101 56.333 163 115c28.667 19.333 49 29 61 29h8l19 -19v-13c0 -28.667 -29.333 -61.667 -88 -99
c-40 -40 -95.333 -71 -166 -93c-6 -7.33301 -33.667 -11 -83 -11c-18.667 -7.33301 -34.667 -11 -48 -11h-24c-18.667 0 -81 21.333 -187 64c-75.333 50 -117 82 -125 96c-69.333 70.667 -104 114.334 -104 131.001l-51 110c-16 40 -32 111 -48 213v51
c0 66.667 9 149.334 27 248.001c8 18.667 19.333 55.334 34 110.001c58 118 109.667 207 155 267c38 42 64.667 75 80 99l142 114l88 48c66 37.333 150.667 66 254 86z" />
    <glyph glyph-name="D" unicode="D" horiz-adv-x="1330" 
d="M305 1850l10 0.00195312l65 -13c106 -7.33301 159 -12.666 159 -15.999c97.333 -34 177 -72 239 -114c46.667 -24.667 89.334 -56 128.001 -94c19.333 -16 42.666 -45.333 69.999 -88c8.66699 -4.66699 23.334 -27.334 44.001 -68.001
c33.333 -54.667 56 -115.334 68 -182.001c14 -24.667 21 -76 21 -154l10 -44c-8.66699 -29.333 -17.334 -76.333 -26.001 -141c-6 -10 -12 -35 -18 -75l-49 -107c-25.333 -56 -42 -89.667 -50 -101c0 -5.33301 -15.667 -30.666 -47 -75.999
c-12.667 -37.333 -56 -88.333 -130 -153l-68 -65c-92 -73.333 -152.667 -113.333 -182 -120c-14.667 -12 -60.667 -24.333 -138 -37h-93l-84 -2l-70 2h-5c-102.667 14 -154 32.333 -154 55v5l5 24c-6.66699 22 -10 53 -10 93v271l10 81v80l13 123v57l6 31l-3 58l3 28l-3 3
l3 13v41l5 47l-5 55l2 3v2l-2 3v2c8.66699 25.333 13 65.333 13 120l2 10l-5 71v96l8 37c-5.33301 21.333 -8 57.666 -8 108.999l13 75c0 29.333 14 46.666 42 51.999h13c19.333 -18.667 33 -28 41 -28c10 5.33301 48.333 12.333 115 21c0 4 14 7.33301 42 10zM208 1756h-18
c-46.667 -14.667 -70 -32.667 -70 -54v-89l-5 -42l5 -23v-31l2 -141c0 -35.333 -5 -70.666 -15 -105.999v-172l-3 -97l3 -46l-8 -71l3 -2l-8 -99l2 -55c0 -18.667 -5 -45.667 -15 -81l2 -2l-5 -34l8 -281l-3 -3v-2c0 -18.667 10.667 -32.667 32 -42
c30 -8.66699 52.333 -13 67 -13h34l55 -3l49 3h13l11 -3l7 3v-3l3 3h42c19.333 0 63.333 12 132 36c0 2.66699 19.333 14 58 34c49.333 30.667 95.333 69.667 138 117c96.667 91.333 145 148 145 170c3.33301 0 9.66602 11 18.999 33c29.333 35.333 51 72.666 65 111.999
c26 42 39 73.333 39 94c4.66699 6.66699 13.334 42.334 26.001 107.001c4.66699 0 11.667 33 21 99v26c-10 116 -19.667 174 -29 174c-10.667 57.333 -27.334 107.666 -50.001 150.999l-72 96c-24 37.333 -56.333 68.666 -97 93.999
c-31.333 24.667 -93.666 59.334 -186.999 104.001l-91 37l-123 13l-49 5l-3 -3h-2l-16 3h-2l-16 -3l-13 3c-42 -10.667 -69 -16 -81 -16z" />
    <glyph glyph-name="E" unicode="E" horiz-adv-x="1200" 
d="M421 1843c71.333 -11.333 153.333 -17 246 -17h10c14.667 0 26 -2 34 -6l35 8c31.333 -6.66699 47 -19.334 47 -38.001v-13c0 -20.667 -22.333 -31 -67 -31l-10 3l-13 -3l-128 3h-6l-69 12h-36c-28.667 0 -62 2.66699 -100 8c-14.667 -6.66699 -68.334 -10 -161.001 -10
c-59.333 -18.667 -98 -28 -116 -28c-10 -10.667 -15 -18.334 -15 -23.001l2 -42l-5 -35l5 -47v-10l-2 -54l2 -38c0 -30.667 -1.66699 -46 -5 -46l8 -52l-3 -2l3 -11l-5 -138v-28l2 -41l-2 -11c0 -42.667 6 -64 18 -64h149l10 -2l59 10l113 -13
c9.33301 0 18.666 -13.667 27.999 -41v-13c-4 -22 -14.333 -33 -31 -33h-2c-31.333 10.667 -63 19.334 -95 26.001l-116 -3c-25.333 -6.66699 -59.333 -10 -102 -10c-17.333 -8 -26 -15 -26 -21v-46l5 -41v-231c8.66699 -54 13 -90 13 -108l-3 -33v-46
c0 -13.333 -2.33301 -26.333 -7 -39c6.66699 -15.333 10 -58.666 10 -129.999v-21c0 -25.333 27.333 -38 82 -38l23 2l69 -2h3l67 2c16 -8 56 -14 120 -18l108 -10l15 -3l34 6h5l164 2l8 3v-3c11.333 3.33301 29.333 5 54 5l30 -5l44 5c20 0 34.333 -8.33301 43 -25v-11
c0 -22 -15.333 -35.667 -46 -41h-154l-69 -10h-97l-29 -3c-35.333 8.66699 -90.666 14.667 -165.999 18c0 3.33301 -27.333 6 -82 8c0 2 -12 3.66699 -36 5l-18 -2l-72 10l-15 -3l-16 3l-15 -3c-77.333 0 -122.666 17.333 -135.999 52l-8 13l3 2l-5 44v5
c0 14.667 2.33301 26.667 7 36l-2 2l2 13v36l3 64l-3 31l3 123l-8 85l3 2v3l-3 10v3l3 2l-3 3l5 133l-7 62v28l-3 100l3 26l-3 18l3 43l-3 105l3 75l-3 56l3 41l-3 16l3 61v249c0 30.667 16 59 48 85c18.667 0 60.667 5 126 15l31 -2z" />
    <glyph glyph-name="F" unicode="F" horiz-adv-x="1000" 
d="M785 1854c31.333 -4.66699 47.002 -19.3359 47.002 -44.0029v-8c0 -10 -19 -19.667 -57 -29c-78.667 2.66699 -118 5.33398 -118 8.00098l-7 -2l-34 2c-34.667 -5.33301 -63.334 -8 -86.001 -8h-45l-23 -2l-34 5c-155.333 -6 -242.333 -15.667 -261 -29
c-14.667 0 -27 -7.66699 -37 -23l3 -105l-10 -73v-2l2 -21c-12 -118 -19 -227.667 -21 -329h-5v-2l3 -13l-3 -8l3 -42l-5 -44v-40c3.33301 -8 9.33301 -14 18 -18l34 8l44 -3l26 3l55 -8c17.333 5.33301 37.333 8 60 8h47c14 0 36.667 4.33301 68 13v-3l34 14h31l52 10
c15.333 0 31 -10.333 47 -31v-26c-5.33301 -15.333 -25.333 -25 -60 -29l-16 2h-7l-131 -23l-169 -10l-42 7c-59.333 -5.33301 -89 -13 -89 -23l-5 -26l3 -97v-378l-14 -73v-57l3 -16l-3 -8l8 -34c-6.66699 -31.333 -22.334 -47 -47.001 -47h-15
c-12.667 0 -22.334 8 -29.001 24l3 8l-3 33c6.66699 37.333 11 88.666 13 153.999l-3 29l13 73v16c-6.66699 22.667 -10 39 -10 49l8 73l-5 37v5l7 29l-2 49l2 19c-6.66699 22 -10 41 -10 57v70l5 40l-2 2v3c6.66699 26.667 10 55.334 10 86.001l-3 86
c4.66699 120 9.33398 180 14.001 180l2 3v7l-2 13c2.66699 18.667 5 69.334 7 152.001l3 2l-3 3c5.33301 22.667 9 65.334 11 128.001l-3 10l3 45l-3 41l3 3v3l-3 2v3c1.33301 60.667 7.33301 91 18 91c0.666992 4 9.66699 8.33301 27 13l60 -13
c42 7.33301 99.333 12.666 172 15.999c0 2.66699 8.66699 4.33398 26 5.00098h2l26 -3l45 6h5l60 -8l55 8h120l60 -3z" />
    <glyph glyph-name="G" unicode="G" horiz-adv-x="1214" 
d="M929 1867c18.667 -0.666992 35.6729 -13.6631 51.0059 -38.9961l-1 -13c-10.667 -20.667 -37.334 -30.334 -80.001 -29.001c-22.667 1.33301 -49.334 -3.66699 -80.001 -15c-57.333 -14 -98.666 -30 -123.999 -48c-39.333 -14 -90.666 -45 -153.999 -93
c0 -5.33301 -39.333 -40 -118 -104c0 -5.33301 -34 -43.333 -102 -114c-34 -36.667 -63 -77 -87 -121c-22 -19.333 -46 -61.333 -72 -126c-27.333 -58 -46 -105.667 -56 -143c-10 -25.333 -15 -43.666 -15 -54.999l-10 -174l-5 -169
c5.33301 -64.667 15.666 -115.334 30.999 -152.001c12.667 -30.667 37.667 -67.667 75 -111c20 -22.667 58.667 -45.667 116 -69l108 -4c14 -0.666992 61 12.333 141 39c42 5.33301 105.667 54.666 191 147.999c33.333 36 56 69.333 68 100c38 58.667 58 114.334 60 167.001
c7.33301 16 14 47.333 20 94c6.66699 17.333 13.667 44.333 21 81c6.66699 43.333 21.667 64.666 45 63.999h3c22.667 -1.33301 36.667 -21.333 42 -60l-3 -16l2 -16l-23 -176l2 -8l-2 -2c7.33301 -63.333 10 -120 8 -170c4.66699 -108.667 10 -169.667 16 -183l-3 -15
l2 -90c-14 -22.667 -27.667 -33.667 -41 -33c-24 1.33301 -39.667 11 -47 29l5 102l-8 64l2 45c3.33301 80.667 -1.33398 121.334 -14.001 122.001l-48 -82c-24.667 -36.667 -67.334 -86 -128.001 -148c-50 -42.667 -105 -74.667 -165 -96
c-78 -28.667 -135 -42.334 -171 -41.001c-62.667 8.66699 -111.334 19.667 -146.001 33c-46.667 19.333 -90.334 50 -131.001 92c-36.667 48.667 -56.334 87.334 -59.001 116.001c-24 50 -35.333 96.333 -34 139c-4 0 -6 13.333 -6 40l2 42l-7 151l1 26
c10.667 45.333 18 97 22 155c12.667 43.333 40.667 121.666 84 234.999l99 154c0 4 24 31 72 81c38 45.333 89.667 100.666 155 165.999c74.667 61.333 123.667 97 147 107c22 17.333 71.667 42.666 149 75.999l75 26l45 8l29 -1z" />
    <glyph glyph-name="H" unicode="H" horiz-adv-x="1400" 
d="M1198 1856c24.667 0 42.3359 -15.668 53.0029 -47.001c-16.667 -40 -25 -90.333 -25 -151v-36l3 -22c0 -13.333 -5.66699 -46 -17 -98v-14l6 -8v-6l2 -55c-5.33301 -18.667 -8 -40 -8 -64v-151l-3 -70l9 -72l-3 -3v-3l16 -44
c-6.66699 -26.667 -10.334 -67.667 -11.001 -123l3 -19h-3l3 -3l-3 -8l6 -53l-3 -17l3 -25l3 -89c-4 -14 -7 -59.667 -9 -137l6 -50h-3l3 -3l-17 -106l6 -44l-3 -28v-3l8 -120c-10.667 -24 -27.334 -36 -50.001 -36h-19c-16.667 7.33301 -25 23 -25 47l-6 42l3 3v3l-3 3v2
l6 48v53l14 159v75l2 64l-2 78v200h-1009c-11.333 0 -17 -3.66699 -17 -11l-3 -86l3 -42c-10.667 -24.667 -16 -82.334 -16 -173.001v-27l-3 -3l3 -3v-3l-3 -47l3 -50c-8 -32 -12.667 -66.333 -14 -103c3.33301 -51.333 12.333 -105.333 27 -162v-6
c0 -13.333 -17.333 -27 -52 -41h-6v2l-8 -2c-20.667 10 -31 25.667 -31 47v33c-9.33301 54.667 -14 92 -14 112v61l14 50c-7.33301 24.667 -11 55.334 -11 92.001c7.33301 22 11 38.667 11 50v59l3 3l-3 2l11 92l3 148l3 3v3l-3 2v3c6.66699 22 14 112.333 22 271l20 108v28
l2 164c4 0 8 24.333 12 73v67l14 89v19l-3 17c8 37.333 18 56 30 56c7.33301 7.33301 15.666 11 24.999 11c22.667 -5.33301 34 -16.333 34 -33v-23c0 -28 -6.66699 -73.333 -20 -136l3 -17l-14 -131l3 -17c-10.667 -187.333 -20 -281 -28 -281v-59
c0 -20 -2.66699 -42 -8 -66v-56h1014v36l3 31c-6 14.667 -9 28.334 -9 41.001v151l6 42l-3 47l9 45l2 264l17 156c13.333 20.667 26.333 31 39 31z" />
    <glyph glyph-name="I" unicode="I" horiz-adv-x="400" 
d="M137 1854l3.00098 0.000976562c27.333 -4 41 -14.667 41 -32v-6c-14.667 -31.333 -22 -70 -22 -116c-3.33301 0 -5 -10.667 -5 -32v-14l-3 -3l3 -2l-3 -14v-132l-8 -41v-43l8 -46v-33c-8.66699 -19.333 -15 -69 -19 -149l5 -73l-2 -19l2 -2l-2 -14v-62l-8 -68v-19
c6.66699 -27.333 10 -49.666 10 -66.999v-138l-5 -65v-11l5 -70l-10 -284l2 -71c0 -10.667 -17 -23.334 -51 -38.001h-19c-12.667 8 -19 17 -19 27v103l14 100l-3 3v24l3 14l-3 13l3 122l-3 73l5 117l-5 165l3 78v73l5 22v70c0 23.333 1.66699 39.666 5 48.999l-2 3l2 10
l3 138v30l3 43l-3 19c9.33301 23.333 14.666 52.333 15.999 87l-2 11l2 178c10.667 61.333 28.667 92 54 92z" />
    <glyph glyph-name="J" unicode="J" horiz-adv-x="1400" 
d="M1010 1859l46 -5l85 2l8 3l18 -3l57 3c30.667 -6 46 -19 46 -39c0 -16.667 -14.667 -31.334 -44 -44.001h-2v3l-3 -3l-80 6l-51 -3h-129l-52 -3l-38 3c-14 -8.66699 -21 -28.334 -21 -59.001c-2.66699 0 -4.33398 -4.33301 -5.00098 -13v-41l-3 -3l8 -26l-8 -54v-26h6
c-4.66699 -18.667 -9 -52 -13 -100c-4 0 -7.66699 -36 -11 -108l3 -39l-16 -129l3 -33l-15 -101v-36l-11 -67v-5l-2 -147l-3 -2h-2l2 -3v-2l-8 -36v-129c0 -28 -9.33301 -74.333 -28 -139c-18.667 -71.333 -42.667 -124.666 -72 -159.999c0 -15.333 -25 -41 -75 -77
c-50 -29.333 -94.667 -44 -134 -44h-13c-95.333 0 -160.333 11 -195 33c-52 16 -112.333 51.333 -181 106c-30.667 38 -54.667 82.667 -72 134l-2 15l2 18l-5 34v2c0 32.667 10.333 49 31 49c16.667 0 29.667 -19.667 39 -59l-3 -41c13.333 -39.333 27 -70.333 41 -93
c68.667 -57.333 122.667 -90 162 -98c7.33301 -9.33301 33.333 -17.666 78 -24.999c0 -4.66699 18 -7.33398 54 -8.00098c66 0 119.333 14.667 160 44c38 20 67 62 87 126c36 105.333 54 192 54 260v31l-2 13l2 18c0 60.667 6 131 18 211v18l-2 26l15 108v15l-2 26l15 83
l-3 36l8 74l-2 16l2 2v3l-2 3v2c4.66699 20.667 8 62.667 10 126l13 47l-3 26l3 56l-3 41l3 62v11c-3.33301 6.66699 -8.66602 11.667 -15.999 15l-98 -8h-69l-46 -7l-31 2l-78 -2h-110c-36.667 -7.33301 -76.334 -12.666 -119.001 -15.999h-13c-17.333 14 -26 26 -26 36v16
c0 14 10.333 23.333 31 28h24l69 5h52l10 3l2 -3l52 5l70 -2h54c104.667 4.66699 219.667 14 345 28l33 -3c52.667 2 86.334 5.66699 101.001 11z" />
    <glyph glyph-name="K" unicode="K" horiz-adv-x="1270" 
d="M867 1861l11.0039 0.00195312c15.333 0 26.666 -12.333 33.999 -37v-2c0 -20 -29.667 -55 -89 -105c0 -4.66699 -21 -25 -63 -61c-7.33301 -10.667 -58.333 -59.667 -153 -147c-78.667 -83.333 -133 -134 -163 -152l-226 -216c-42 -47.333 -63 -75.333 -63 -84
s15 -18.334 45 -29.001l102 -55c42.667 -29.333 81.334 -52 116.001 -68l129 -74c31.333 -29.333 69 -60 113 -92c26.667 -30.667 60.667 -58.667 102 -84c37.333 -42 67.333 -78.667 90 -110l78 -87c16 -6.66699 43.333 -41 82 -103l79 -86l5 -24
c0 -20 -11.333 -35 -34 -45c-30.667 0 -57 25.333 -79 76c-28.667 25.333 -56.667 60.666 -84 105.999c-26.667 33.333 -72.334 85 -137.001 155c-18.667 29.333 -68.667 78.333 -150 147c-93.333 74.667 -151 116.667 -173 126c-45.333 21.333 -101.333 53 -168 95l-55 34
l-79 37l-11 2c-16 -3.33301 -24 -17.333 -24 -42l-2 -2l2 -3l-2 -11l-3 -134l-5 -21l3 -42l-8 -39v-142l-3 -66l3 -18l-3 -26l3 -111v-52c0 -22 -16.667 -38.667 -50 -50c-22.667 0 -34 25.333 -34 76l-3 13l8 45l-5 118l8 152l-3 3v3l3 21l-3 50l8 31l-3 42l19 216
c0 69.333 4.33301 132.333 13 189l10 100v55l5 29v123l3 90l-3 13c7.33301 30 11 59.667 11 89v84c15.333 61.333 29.333 92 42 92h11c18 0 30 -14 36 -42v-5c-14 -44.667 -21 -115.667 -21 -213v-179c-8.66699 -90.667 -13 -164 -13 -220l-8 -34
c0.666992 -5.33301 5 -9 13 -11c15.333 31.333 41.666 62 78.999 92c48 37.333 117.333 100.333 208 189c7.33301 0 67.666 58 180.999 174c21.333 11.333 68 57.666 140 138.999c6.66699 2 10 15 10 39c7.33301 14.667 25.666 26.334 54.999 35.001
c30.667 29.333 51.667 44 63 44z" />
    <glyph glyph-name="L" unicode="L" 
d="M66 1846c22.667 0 36.666 -19.334 41.999 -58.001c-8.66699 -19.333 -13 -33.333 -13 -42v-92c0 -53.333 -4.66699 -93.333 -14 -120v-192l-5 -37l5 -42v-268c0 -45.333 4.66699 -80.333 14 -105v-2l-6 -89l6 -16l-3 -21c0 -32 5.33301 -71.333 16 -118l-3 -13l3 -8
l-3 -3v-3l3 -15l-3 -3l3 -3v-31l-3 -53c10 -36.667 18 -98.667 24 -186l-3 -11c6.66699 -18.667 19.667 -28 39 -28l134 7l24 -5l34 5l29 -2h58c30 8 95.667 15 197 21h94l79 -3l23 3c20 -5.33301 45.667 -9 77 -11c15.333 -15.333 23 -26.666 23 -33.999v-18
c0 -12 -20 -20 -60 -24l-134 11c-140.667 -4 -260.667 -13 -360 -27v3l-2 -3h-3l-8 6c-18 -5.33301 -36.333 -8 -55 -8h-13l-42 10l-71 -10h-66c-16 -5.33301 -31.667 -8 -47 -8c-22.667 15.333 -34 29.333 -34 42v10l11 37c-9.33301 54 -15.666 116.333 -18.999 187l3 15
c-7.33301 22 -11 45.667 -11 71v87l-2 10l2 3c-1.33301 35.333 -6.33301 78.333 -15 129l2 29l-2 7l5 45l-13 171l2 15l-2 19l2 2v3l-2 3l5 113l-8 44l3 16h-3l3 3v44l8 71l-8 81l23 234l-2 53c0 68 12 102 36 102h6z" />
    <glyph glyph-name="M" unicode="M" horiz-adv-x="1600" 
d="M1309 1861c29.333 0 43.999 -31.335 43.999 -94.002l11 -86l-11 -39l14 -64l-3 -48l3 -53l-3 -80l14 -226l-3 -22l3 -56v-130l11 -78l-8 -39c5.33301 -12.667 10 -66.667 14 -162v-97l-6 -89v-25l6 -53v-167c-6 -35.333 -20 -53 -42 -53h-8
c-33.333 8.66699 -50 23.667 -50 45l11 58v53l-3 145l3 30l-3 3l3 14v348l-11 78v83l-3 45l3 53v144c0 29.333 -2 49 -6 59l3 16v3c-5.33301 0 -9 34.333 -11 103l2 17l-5 58l3 48c-1.33301 76 -5 114 -11 114h-9c-27.333 -48 -66.333 -103.667 -117 -167
c-39.333 -54.667 -69.666 -102 -90.999 -142c-31.333 -32.667 -69.666 -78 -114.999 -136c-34.667 -44.667 -69.667 -85.667 -105 -123c-14.667 -35.333 -42.667 -66 -84 -92l-11 -8h-25c-13.333 5.33301 -32.666 29.333 -57.999 72c-28 22.667 -53 51.667 -75 87
c-140.667 136.667 -227 227.334 -259 272.001c-34 22.667 -75 62.667 -123 120l-75 67h-2c-8 -4 -12 -9.66699 -12 -17l20 -239l-3 -31l17 -175v-123l-3 -253l-8 -36l8 -53v-97c0 -30 -2.66699 -47.667 -8 -53v-17l2 -3l-2 -2v-3l2 -3v-3h-2l2 -3v-2l-5 -56l5 -22l-2 -14
l2 -14l-5 -33v-39l-3 -3l3 -3v-106c0 -19.333 -14 -37.666 -42 -54.999h-3c-20 0 -36.667 13 -50 39l6 125v136c9.33301 17.333 14 118.333 14 303l3 53l-3 11l3 56v67c1.33301 66.667 5 100 11 100c-7.33301 23.333 -11 42.666 -11 57.999l2 31l-5 106l3 14l-17 72v45
l-3 66l3 23c-2.66699 34 -6.33398 57 -11.001 69l2 3l-5 33h3l-3 3v25l3 22l-14 98l-3 47c11.333 11.333 20.666 17 27.999 17h19c54 -9.33301 81 -25.333 81 -48c0 -23.333 27.667 -56.666 83 -99.999c0.666992 -5.33301 75 -80.333 223 -225
c0 -12 66.667 -80.667 200 -206c11.333 -26 37.333 -53.667 78 -83h6c12.667 0 34 22 64 66c54 50.667 101.333 103.667 142 159c67.333 74 109 133.333 125 178c56.667 64.667 101 126 133 184c44 70 81.333 105 112 105h3z" />
    <glyph glyph-name="N" unicode="N" horiz-adv-x="1400" 
d="M1095 1850c20 -6.66699 29.9971 -19.333 29.9971 -38l-7 -48c6.66699 -44.667 10 -77.667 10 -99l-5 -69l5 -35l-3 -18l5 -66l-2 -33l5 -30l-3 -43l3 -8h-3l3 -2v-198c2.66699 -34 6 -51 10 -51l-8 -38c8.66699 -20.667 13 -87.334 13 -200.001v-8l5 -58l-10 -58l15 -233
l3 -13l-5 -56l10 -48l-3 -15c3.33301 0 6 -21.333 8 -64h-3l3 -2v-13l-3 -2l3 -3v-51c-8 -33.333 -20.667 -50 -38 -50h-10c-18.667 0 -47.334 29.667 -86.001 89l-147 136l-71 87l-109 134c-45.333 70.667 -86 128 -122 172c0 8 -14.333 28.333 -43 61
c-29.333 43.333 -57.333 80.666 -84 111.999c-24.667 48 -56.667 97 -96 147c-4 10.667 -23.333 38.334 -58 83.001l-69 107c-10.667 22 -36 58.333 -76 109c0 10.667 -12.667 31.667 -38 63l-5 -5v-13c0 -22 3.33301 -44 10 -66c0 -64 5 -122 15 -174v-46
c12 -45.333 18 -119 18 -221c5.33301 -11.333 8 -25.666 8 -42.999l-3 -61c3.33301 -57.333 5 -141.666 5 -252.999v-63c0 -96 -3.33301 -155.333 -10 -178l5 -38l-12 -111c-11.333 -15.333 -21.666 -23 -30.999 -23h-10c-19.333 0 -31 18.667 -35 56l5 28v7h5l-3 8l3 30v51
l-3 12l3 16v25c0 33.333 2.33301 70.666 7 111.999l-2 38l5 22l-8 74l3 13l-5 192l2 31l-2 81v61l-10 83v28l-8 33l3 15v8c-15.333 81.333 -23 141.333 -23 180v33c-8.66699 33.333 -15.667 94 -21 182c-1.33301 21.333 -11.333 69.666 -30 144.999
c8.66699 20 22.334 30 41.001 30h12c19.333 0 36.333 -33.667 51 -101c11.333 -30.667 34 -77.334 68 -140.001c13.333 -30 32 -59.333 56 -88c23.333 -45.333 51.333 -87 84 -125c34 -59.333 85.333 -134.333 154 -225c12 -16 18 -28.667 18 -38
c27.333 -43.333 50.333 -73.666 69 -90.999l83 -114c68.667 -90 103.334 -141.667 104.001 -155c38.667 -52 71.667 -91.667 99 -119c62.667 -80 105.667 -130 129 -150c58 -48.667 92.667 -81.667 104 -99l3 3h2l3 -3h2c5.33301 6.66699 8 12.667 8 18v155l2 15l-10 68h3
l-3 3v2l5 6l-2 7l2 13c-3.33301 6.66699 -5.66602 52.334 -6.99902 137.001l5 55l-5 56v23l2 13l-2 15v89c-4.66699 18 -9.66699 80.333 -15 187v167l-3 33l3 21l-3 114l-8 43v137l-2 58c0 40.667 14.333 61 43 61zM118.997 1505v-2h5v2h-5z" />
    <glyph glyph-name="O" unicode="O" horiz-adv-x="1400" 
d="M612 1839l42.001 -5.00391l10 3c32.667 -7.33301 78 -12.666 136 -15.999c60 -16 111.333 -40.333 154 -73c49.333 -28.667 86.666 -62.667 111.999 -102c16.667 -14 29.667 -35.667 39 -65c21.333 -16.667 50 -87.667 86 -213l23 -167l3 -39l-3 -3
c7.33301 -28.667 11 -55.667 11 -81c-4 -32.667 -7.66699 -49 -11 -49v-8l5 -29v-21c0 -35.333 -6 -87.333 -18 -156v-39c-10 -68 -27.333 -125.333 -52 -172c-4.66699 -37.333 -16 -67.666 -34 -90.999c-17.333 -31.333 -55.333 -83.666 -114 -156.999
c-113.333 -88 -196 -132 -248 -132c-4 -4 -32.667 -8.33301 -86 -13c-1.33301 -5.33301 -8.33301 -8 -21 -8h-23l-8 -3l-13 3h-63c-50 14 -95 24.333 -135 31c-41.333 29.333 -74.333 49.333 -99 60c-46.667 28.667 -79 50.334 -97 65.001
c-81.333 87.333 -134 160.333 -158 219l-27 96v19c-8.66699 56 -13 130.667 -13 224c-6.66699 32 -10 55.333 -10 70c10.667 48 16 101 16 159l28 133c20 57.333 57.333 143.333 112 258c39.333 52.667 87.333 105.667 144 159c81.333 63.333 142 102.333 182 117
c24.667 10.667 43.667 16 57 16l11 -3zM89.001 1102l-0.000976562 -7.99902l-3 -3l3 -2c-4 -20.667 -6 -46.667 -6 -78v-40l8 -83l-2 -10v-6h2l-2 -28c4.66699 -81.333 10.667 -141.333 18 -180c13.333 -64.667 35 -113.334 65 -146.001
c48.667 -63.333 98.334 -112 149.001 -146c93.333 -60.667 168 -91 224 -91l57 -8l115 21c0 3.33301 14.667 5 44 5c45.333 16.667 109.666 56.667 192.999 120c16 18 36 46.667 60 86c32.667 32.667 55 72.667 67 120c8.66699 10.667 22.667 49.667 42 117
c17.333 89.333 26 169.333 26 240l-2 55l2 18l-2 2l2 13l-2 165c-21.333 110.667 -45.666 201.667 -72.999 273c-22 48 -57.667 97.667 -107 149c-69.333 52 -116.333 78 -141 78c-6.66699 8 -38.667 14 -96 18l-3 -2h-3l-80 13l-3 2h-3l-31 -2l-26 7
c-38.667 -9.33301 -83 -27.333 -133 -54c-56 -38.667 -96 -68.334 -120 -89.001l-73 -83c-30 -40.667 -54.333 -85 -73 -133c-40 -77.333 -65 -149.333 -75 -216c-12 -47.333 -18 -78.666 -18 -93.999z" />
    <glyph glyph-name="P" unicode="P" horiz-adv-x="1108" 
d="M214 1858c23.333 -8.66699 40.6689 -13.001 52.002 -13.001l8 2l2 -2h3l3 2h2c39.333 -3.33301 88 -12 146 -26c35.333 0 67.666 -6 96.999 -18c22.667 0 92 -27 208 -81c26.667 -10 59.667 -47.333 99 -112c14.667 -28 31.334 -86.333 50.001 -175v-70l-32 -128
c-49.333 -89.333 -82.333 -136.333 -99 -141c-62.667 -52 -131.334 -95.333 -206.001 -130l-146 -60c-33.333 -5.33301 -83.666 -16.666 -150.999 -33.999h-31l-5 -5l-3 3l-31 -6v3l-3 -3h-2l-58 11l-13 -16l3 -2v-170l-3 -104l3 -21l-3 -16l5 -143l-2 -78v-32l5 -41v-8
c-8.66699 -29.333 -23.334 -44 -44.001 -44h-5c-18 0 -30.333 14.667 -37 44h-3l3 89l-3 219l3 159l-3 328l-7 39l2 8l-2 3v2l2 16l-5 41l8 45v42l-8 44l-3 180l3 75c-2.66699 72.667 -5.33398 112.667 -8.00098 120h3l-3 3v8h5v7h-5l-5 63v5c0 68 14 102 42 102h28z
M78.0029 1743l3.00293 -159.004v-11l8 -44v-10l-8 -34c3.33301 -7.33301 5 -21.333 5 -42v-26l-3 -3l3 -2l-3 -13v-21l13 -86v-112l-2 -115l10 -60l-5 -44c3.33301 -10.667 20.666 -16 51.999 -16l13 -2c66.667 0 117 7.66699 151 23c46.667 6 80.667 14.667 102 26l151 65
c31.333 18.667 61 41.334 89 68.001c25.333 6 50.666 27.667 75.999 65c23.333 24 43.333 65 60 123v23c6.66699 20.667 10 36.334 10 47.001v39c-8 84.667 -21 137 -39 157c-10 24.667 -38 53.334 -84 86.001c-64.667 31.333 -125.334 53 -182.001 65
c-34 12 -73 18 -117 18c-14 8.66699 -53.333 17.334 -118 26.001h-120c-34 0 -55.667 -10.333 -65 -31z" />
    <glyph glyph-name="Q" unicode="Q" horiz-adv-x="1488" 
d="M653 1865l54 -0.00390625c15.333 0 41.333 -18.667 78 -56c62.667 -12 102.667 -24.667 120 -38c36.667 -15.333 74.667 -40 114 -74c62.667 -51.333 101.667 -94.666 117 -129.999c41.333 -60 70.333 -132 87 -216c12.667 -34 22 -70.333 28 -109
c10 -43.333 20 -107.666 30 -192.999v-67c0 -18.667 -4.33301 -39 -13 -61l3 -7c-10 -94.667 -25.333 -159 -46 -193c-4 -30.667 -26 -83.334 -66 -158.001c-25.333 -21.333 -38 -43.333 -38 -66c6 -14 18.667 -32.667 38 -56c34.667 -47.333 62.667 -89.666 84 -126.999
l38 -43v-16c0 -17.333 -14.333 -29 -43 -35h-10c-13.333 0 -25.333 15.333 -36 46c-37.333 46 -65.333 89 -84 129c-21.333 27.333 -35.666 41 -42.999 41l-112 -92c-31.333 -23.333 -92.333 -54.666 -183 -93.999c-34 -11.333 -56 -17 -66 -17
c-68.667 -22 -120.334 -33 -155.001 -33c-38 0 -82 6.66699 -132 20l-3 -3c-37.333 0 -90.666 25.667 -159.999 77c-30.667 9.33301 -63.667 41.333 -99 96c-43.333 46.667 -68 86.667 -74 120c-26 40.667 -42 87 -48 139c-8.66699 23.333 -18.667 75.333 -30 156l2 7
l-5 132c0 42 6.66699 80.333 20 115l-2 15c16.667 50.667 25 79.334 25 86.001c0 8.66699 23 69.667 69 183c21.333 36.667 46.666 85 75.999 145l160 201c36 45.333 70 76 102 92c59.333 42 103.333 63 132 63zM74 943.996l6.99805 -53.001l-2 -18l5 -48v-59
c10 -70.667 28.667 -142.667 56 -216c21.333 -50 40.666 -84.667 57.999 -104c44 -55.333 84 -94.333 120 -117c60.667 -35.333 127.667 -53 201 -53h48c13.333 0 44.666 7.66699 93.999 23c16.667 0 46.334 9.33301 89.001 28l2 -3h3c8 0 39.333 16 94 48
c34 10 78 40.667 132 92c27.333 24.667 41 40.667 41 48v5h2l-160 242c-28 30.667 -59.333 74.667 -94 132c-30.667 42.667 -46 77.334 -46 104.001c10.667 11.333 20 17.333 28 18c18 0 40.333 -22 67 -66l40 -61c0 -6.66699 38.333 -61.667 115 -165
c43.333 -70 69.333 -109 78 -117c3.33301 -10 11 -18.667 23 -26c16.667 6.66699 36.334 40.667 59.001 102c18.667 16 41.334 84.667 68.001 206v25l11 82v38l-11 135l-17 66c-22.667 109.333 -49 198.333 -79 267c-21.333 43.333 -58.666 88 -111.999 134
c-48 44 -103 77 -165 99c-31.333 12.667 -72 23 -122 31h-36l-38 25c-98.667 -27.333 -181 -81.333 -247 -162l-96 -117c-62 -88 -112 -188 -150 -300c-27.333 -68.667 -49.333 -157 -66 -265z" />
    <glyph glyph-name="R" unicode="R" horiz-adv-x="1063" 
d="M305 1850c43.333 -5.33301 81.667 -16.001 115 -32.001c12.667 -10 46.667 -28.333 102 -55c34 -28 59.667 -56 77 -84c6 -7.33301 14.667 -28.333 26 -63c5.33301 0 12.333 -27 21 -81v-13c0 -80 -13.333 -148.333 -40 -205c-9.33301 -38 -37.333 -81 -84 -129
c-72.667 -80 -117 -120 -133 -120l-50 -27c-11.333 -8 -29.666 -16.667 -54.999 -26c-38 -26 -69.667 -43.333 -95 -52l-8 -11v-2c0 -6.66699 21 -20.667 63 -42c80 -62.667 156.333 -127.667 229 -195l97 -97l78 -102c53.333 -67.333 99 -135.666 137 -204.999l45 -87
c0 -6.66699 6 -19.667 18 -39l5 -18c0 -22.667 -16.667 -37.667 -50 -45c-16.667 0 -40.334 43 -71.001 129c-49.333 96.667 -84.333 152.667 -105 168c0 7.33301 -45.333 66.666 -136 177.999c-5.33301 0 -33.333 29.667 -84 89c-90 74 -137.333 111 -142 111
c-38 40 -74.667 67 -110 81l-47 21h-6c-9.33301 0 -15.333 -21 -18 -63v-42l-3 -129l3 -2v-3l-3 -8l6 -115l-3 -13l3 -3v-3l-3 -2l3 -8l-3 -42l3 -32l-3 -34c10.667 -42 16 -93.667 16 -155c3.33301 0 5 -10.333 5 -31v-8c0 -23.333 -17.333 -37.333 -52 -42
c-21.333 4.66699 -32 27.334 -32 68.001c-5.33301 100 -11.333 166.667 -18 200v37c1.33301 11.333 4 17.333 8 18l-3 39l3 42l-8 40v26c0 12.667 3.33301 32 10 58c-6.66699 36 -10 67.333 -10 94v3l10 52v247l-2 121l2 2v3l-2 8l2 55l-5 105l5 32v10l3 87l-16 107v174
c0 10 6 17.667 18 23h29l37 -29c6.66699 2 25 14.333 55 37c21.333 0 45 7 71 21l24 -3zM74.001 1664l0.000976562 -2.99902l5 -8v-3l-3 -21l16 -147v-2c-7.33301 -48.667 -11 -87.334 -11 -116.001v-84l3 -89l-3 -10l8 -45l-2 -37l2 -23l-5 -42c0 -11.333 7 -19.333 21 -24
c35.333 9.33301 74 26 116 50c18 16.667 51 34 99 52c75.333 44.667 129.666 94.667 162.999 150c36.667 36 57.667 74.333 63 115c8.66699 20.667 16.667 54 24 100v42c0 36.667 -15 84 -45 142c-56.667 54.667 -101.334 84.334 -134.001 89.001c-28 14 -52.333 21 -73 21
c-101.333 0 -170.666 -21 -207.999 -63c-24 -16.667 -36 -31.334 -36 -44.001z" />
    <glyph glyph-name="S" unicode="S" horiz-adv-x="1112" 
d="M713 1839c68 -5.33301 101.997 -14 101.997 -26c44.667 -18 67 -36 67 -54v-10c-4 -9.33301 -10.667 -16.333 -20 -21h-18l-62 31c-16.667 3.33301 -39.667 5 -69 5h-67c-36.667 0 -86.667 -12.667 -150 -38c-55.333 -25.333 -111 -62.333 -167 -111
c-75.333 -82 -113 -133.333 -113 -154c-24 -29.333 -36 -91 -36 -185c8 -59.333 27.667 -109.333 59 -150c30.667 -18.667 78 -28 142 -28c6.66699 -5.33301 13.334 -8 20.001 -8l147 -2c26.667 -2 79.667 -21.667 159 -59c28.667 -15.333 73.334 -57.333 134.001 -126
c30 -39.333 52.333 -104.666 67 -195.999c-6 -78.667 -13.667 -118 -23 -118c-19.333 -46.667 -36.666 -79.334 -51.999 -98.001c-2 -18.667 -28.333 -59 -79 -121c-36 -38.667 -70.333 -66 -103 -82c-30.667 -30.667 -69.334 -51.334 -116.001 -62.001l-95 -23l-98 -3
l-100 21c-50 17.333 -118.667 64.333 -206 141c-20 21.333 -32 43.666 -36 66.999c5.33301 36 14.666 54 27.999 54h3c14.667 0 27.334 -18.667 38.001 -56c12.667 -19.333 49.667 -53.666 111 -102.999c58 -34.667 113 -52 165 -52h77l15 3l3 -3
c34 7.33301 71.667 20.333 113 39c22.667 9.33301 52.667 30.666 90 63.999c32.667 19.333 64.334 52 95.001 98c56.667 96 85 157 85 183c0 18.667 3.33301 35.667 10 51l-33 126c-58 82 -123.333 136 -196 162c-1.33301 8.66699 -40.666 14.667 -117.999 18
c0 4.66699 -42 8.33398 -126 11.001c0 4.66699 -25.667 8 -77 10c-66.667 18 -100 31.667 -100 41c-39.333 58.667 -65.333 120.334 -78 185.001v113c0 32 26 94 78 186l87 100c37.333 37.333 96.666 78.333 177.999 123c70.667 32.667 123.667 49 159 49z" />
    <glyph glyph-name="T" unicode="T" horiz-adv-x="1200" 
d="M995 1850h10.002c30.667 0 46 -19.667 46 -59c-10 -16.667 -21 -25 -33 -25l-44 8h-92l-56 -3l-53 3h-31l-56 -6l-3 3c0 -3.33301 -10 -6 -30 -8l-8 3l-7 -3l-23 3h-13c-14 -6.66699 -21 -16 -21 -28l3 -18c-2 -31.333 -5.33301 -54.333 -10 -69l2 -2l-5 -49l8 -38h-3
l3 -3v-2l-10 -41l2 -3v-306l-2 -15l2 -10c0 -22.667 -4 -49 -12 -79l2 -69v-79l-2 -107l10 -84h-3l3 -3v-2c-6.66699 -14.667 -10 -61.667 -10 -141v-7l-8 -77v-7l2 -16l-2 -2l2 -11l-12 -188c-4.66699 -10 -9 -36.333 -13 -79c-12.667 -20.667 -25.334 -31 -38.001 -31h-5
c-16.667 0 -28 14.333 -34 43l3 13v72c6.66699 46 11.667 104.667 15 176c5.33301 6 8 14.333 8 25v5c0 116 3.33301 174 10 174l-2 12l2 79l-5 54l5 64l-5 58l3 54h2l-5 41c5.33301 17.333 8.66602 58 9.99902 122c8.66699 34.667 13 58.667 13 72
c0 40 -3.33301 77.333 -10 112v12l10 41l-10 54c6.66699 36 10 71.667 10 107v148c0 10 -6 17.667 -18 23l-53 -3l-44 3l-107 -15h-89l-41 -3l-13 3l-41 -3v3l-2 -3h-66c-14.667 0 -25 11 -31 33v13c-0 15.333 10.333 23.666 31 24.999h53l112 5l51 -2
c58 6.66699 137.333 11.667 238 15c3.33301 4.66699 14.333 7.33398 33 8.00098h71l74 -3l117 8h79l62 -5z" />
    <glyph glyph-name="U" unicode="U" horiz-adv-x="1200" 
d="M86 1869l1.99805 0.00292969c28 -8.66699 42 -21.667 42 -39v-3c-11.333 -38 -17 -70 -17 -96v-77c0 -104.667 -9 -226 -27 -364l2 -12c-1.33301 -81.333 -4 -136.333 -8 -165l6 -61v-8c0 -69.333 2.66699 -129 8 -179v-31c10.667 -52.667 19 -106.667 25 -162
c10.667 -22 21.667 -60 33 -114c8.66699 -24 25 -58.667 49 -104c6 -2.66699 20 -22 42 -58l58 -53c45.333 -38.667 125.333 -58 240 -58c64 14 116.333 40.667 157 80c44.667 35.333 82.334 102.666 113.001 201.999c13.333 12.667 23.333 43 30 91
c16.667 46.667 25 78 25 94l25 187c0 24.667 3.66699 46.667 11 66c-7.33301 116 -11 249.333 -11 400v22c-9.33301 52.667 -14 98 -14 136l3 11c-11.333 26 -17 67.333 -17 124l3 85v20c0 15.333 13 26.333 39 33c18.667 0 31.334 -17.667 38.001 -53l-8 -55
c0 -56 4.66699 -110.333 14 -163c0 -40 4.66699 -84 14 -132c0 -26 1.66699 -41.667 5 -47l-2 -94v-30l11 -276l-20 -91l3 -11l-25 -190c-18 -32.667 -27 -62.334 -27 -89.001c-12.667 -20.667 -38.667 -92.334 -78 -215.001
c-49.333 -70.667 -100.666 -120.334 -153.999 -149.001c-76.667 -27.333 -128.334 -41 -155.001 -41h-8c-95.333 10 -169.666 28.333 -222.999 55c-72.667 49.333 -122.334 99 -149.001 149c-30 42 -47.667 76 -53 102c-18.667 38 -38.667 111.667 -60 221
c-13.333 66.667 -20 116.334 -20 149.001l-2 27l2 36l-8 64v193l6 33l-3 41l8 64v47l17 82v124l2 11l-2 14c0 79.333 5.33301 151 16 215c5.33301 24 19.333 38 42 42z" />
    <glyph glyph-name="V" unicode="V" horiz-adv-x="1366" 
d="M1155 1843l11.001 0.000976562c16.667 0 26.667 -13.667 30 -41c-34.667 -116 -52 -189.333 -52 -220c-14.667 -40 -31.334 -99.333 -50.001 -178c-4 -5.33301 -8.33301 -24.666 -13 -57.999c-14.667 -33.333 -27.667 -73.333 -39 -120l3 -3v-3l-41 -112
c-17.333 -21.333 -33.666 -69 -48.999 -143l-96 -247l-20 -46c-22 -52 -35.667 -97 -41 -135c-9.33301 -16.667 -33 -77 -71 -181c-22 -32 -37.667 -69.333 -47 -112c-26 -29.333 -45 -44 -57 -44h-14c-19.333 9.33301 -34 31.333 -44 66c-50 130 -81 206.667 -93 230
c-18.667 36 -28 61.667 -28 77c-16 12.667 -42.333 76.667 -79 192c-41.333 76.667 -72.333 146 -93 208c-18.667 32.667 -48 104 -88 214l-3 3v3l3 3v2l-44 132c-16 70 -42.667 154 -80 252c-18 40 -29.667 77.667 -35 113c-16.667 29.333 -25 46.666 -25 51.999
c0 42 10 63 30 63c25.333 0 43.666 -22 54.999 -66c8.66699 -14.667 17 -40.334 25 -77.001l49 -120l55 -184l8 -30l-3 -3c12.667 -16.667 27.334 -62.334 44.001 -137.001l61 -143c0 -10 14.667 -43.667 44 -101c19.333 -50 49.333 -116 90 -198
c0 -11.333 22 -65.333 66 -162l52 -129c12 -46.667 27.667 -78.667 47 -96c18 0 48 52.333 90 157l102 277c25.333 54.667 43.666 106.667 54.999 156c10 6 25.333 50 46 132l41 104c29.333 86.667 46 144.334 50 173.001l49 137l27 132c18.667 136.667 38 205 58 205
c0 3.33301 4.66699 5.33301 14 6z" />
    <glyph glyph-name="W" unicode="W" horiz-adv-x="1439" 
d="M1203 1854c16.667 0 31.333 -13.665 44 -40.998l-24 -55c-8.66699 -48.667 -16.334 -108 -23.001 -178l-3 -18v-102l-3 -123h-3l3 -3v-3l-9 -111v-52l-3 -41l12 -161v-87l3 -18l-12 -84l6 -38v-21l-3 -99l3 -23l-6 -41l6 -59l-9 -55v-15l3 -81l-3 -82v-3l-5 -32v-3l3 -47
l-3 -47v-11l-3 -3l3 -3v-3l-9 -29l9 -32v-9c0 -19.333 -17.667 -33 -53 -41c-25.333 0 -60.333 39 -105 117c-22 18 -50.333 54 -85 108c-37.333 44.667 -73.333 97 -108 157c-31.333 34.667 -63.333 82.667 -96 144c-21.333 26.667 -42.666 60.667 -63.999 102
c-18 19.333 -46.333 59 -85 119l-15 3h-5c-22 -15.333 -41.667 -46.333 -59 -93c-15.333 -12 -38.666 -55 -69.999 -129c-46.667 -64.667 -70 -107.334 -70 -128.001c-17.333 -22.667 -39.666 -62.667 -66.999 -120c-21.333 -24.667 -53.333 -76 -96 -154
c-32.667 -52.667 -60 -79 -82 -79h-21c-15.333 0 -26 28 -32 84c-4 8 -6 19 -6 33v61c-11.333 56.667 -17 107.334 -17 152.001c-10.667 13.333 -19.334 67.666 -26.001 162.999l3 23l-3 50v23l3 3l-3 3v35l-15 76l3 85l-3 114l12 114l-3 35l6 149l-3 20l3 64v41l-3 24l6 73
l-6 43l3 18l-3 99l3 18l-3 3v2c0 68.667 6.66699 103 20 103c6.66699 11.333 15.334 17 26.001 17c29.333 -11.333 44 -27 44 -47h-3l3 -2v-3l-9 -47l3 -32l-3 -56l6 -73h-3l3 -3v-3l-3 -8l3 -15v-82l-3 -11l3 -12l-3 -41l3 -23l-8 -56l2 -146h-2l2 -3v-3l-2 -186l2 -138
l-2 -17l14 -114v-152c17.333 -101.333 28 -177.333 32 -228c5.33301 -14.667 11.333 -24.334 18 -29.001h9c0 5.33301 16.333 28.666 49 69.999l169 289c17.333 29.333 30 58.666 38 87.999c29.333 37.333 52 76.333 68 117c22.667 52.667 47 79 73 79h5
c27.333 0 50 -26.333 68 -79c30 -32.667 54.333 -66.667 73 -102c18.667 -15.333 41 -48.666 67 -99.999c18.667 -20 37 -49 55 -87c9.33301 -7.33301 30.666 -39.666 63.999 -96.999c17.333 -12 34 -36.333 50 -73c19.333 -21.333 45.666 -58.333 78.999 -111
c34.667 -31.333 52 -52.666 52 -63.999h6c8.66699 6.66699 17.667 45.667 27 117l8 134v44l3 23l-3 27l6 64v102l-3 91l3 8l-3 15l3 120v67l-6 85l3 8l-3 15l3 3l-3 14v33l3 11l-6 41c6 22 10 107.667 12 257l-3 79c10 29.333 15 55.666 15 78.999v114
c10 83.333 29.333 125 58 125z" />
    <glyph glyph-name="X" unicode="X" horiz-adv-x="1366" 
d="M1138 1839l6.00098 -0.000976562c20 0 31.333 -16.667 34 -50c-46 -74 -80.333 -126 -103 -156l-58 -114c0 -7.33301 -17.667 -34.666 -53 -81.999c-50.667 -84 -88 -150.333 -112 -199c-48.667 -64.667 -89 -123.667 -121 -177c-51.333 -64 -77 -103.667 -77 -119
l29 -40c0 -9.33301 32.667 -46.333 98 -111l111 -138l72 -90l111 -127c36.667 -32 55 -58.333 55 -79c4 -9.33301 25.333 -32.333 64 -69v-29c-14.667 -18 -30.667 -27 -48 -27c-12 0 -26 15 -42 45c-13.333 16.667 -32.666 35.334 -57.999 56.001
c-32 26 -53.333 52.333 -64 79c-16.667 32 -38.667 61.333 -66 88l-82 97c-12 20 -28 39.667 -48 59c-48.667 66.667 -93.667 119.667 -135 159c-21.333 31.333 -38 47 -50 47c-11.333 0 -24.666 -16.667 -39.999 -50c-32 -39.333 -68 -91.333 -108 -156
c-14 -14.667 -36 -47.334 -66 -98.001c-78 -96.667 -132 -169 -162 -217c-18 -20 -49 -61.667 -93 -125c-16 -10.667 -27.333 -16 -34 -16h-11c-20 0 -31.333 14.333 -34 43c7.33301 20.667 49.666 76.334 126.999 167.001c0 13.333 34.333 60 103 140
c8.66699 20.667 30 50.667 64 90c4.66699 14 29.334 51 74.001 111c18.667 31.333 40.667 62.333 66 93c0 5.33301 18.667 33.333 56 84l5 22c-2 10 -17 32 -45 66c0 6.66699 -21.333 35 -64 85c-46 60 -78.333 109.333 -97 148c-3.33301 0 -26.333 28 -69 84
c-25.333 20 -47.333 45.667 -66 77c-38 40 -66.333 78 -85 114c-28.667 45.333 -61.334 106.333 -98.001 183c-6.66699 0 -14.667 29 -24 87c10.667 12.667 30 19 58 19c21.333 0 33.666 -24 36.999 -72c24.667 -64 61 -136.333 109 -217
c9.33301 -6.66699 43.666 -49 102.999 -127c48.667 -49.333 107 -123.333 175 -222l114 -151h8c4 0 26 28 66 84c27.333 32.667 63.333 87.667 108 165c9.33301 10 20 29.333 32 58c22 26 46.667 66.667 74 122c42 59.333 71.333 107.666 88 144.999c4 2 15.333 24 34 66
c30 42.667 53 80 69 112c31.333 42 52.333 63 63 63z" />
    <glyph glyph-name="Y" unicode="Y" horiz-adv-x="1366" 
d="M24 1849c30.667 0 65.3301 -22.334 103.997 -67.001l139 -117c6.66699 -9.33301 34 -31.666 82 -66.999c0 -4.66699 28.667 -29.667 86 -75c38.667 -27.333 98.334 -81.333 179.001 -162c10 -15.333 27.667 -28 53 -38c49.333 -30 85.666 -71.667 108.999 -125l11 -3
c5.33301 0 14.333 16 27 48c4.66699 4.66699 26 46.667 64 126c33.333 53.333 60.666 109.333 81.999 168c20 22 38 59.333 54 112c28.667 62 53.334 104.667 74.001 128c6.66699 24.667 21 37 43 37h13c16 0 27.667 -12.333 35 -37v-6c0 -6 -12.333 -25.333 -37 -58
l-54 -80c0 -6 -23 -52.333 -69 -139c0 -17.333 -17.667 -58.333 -53 -123c0 -4.66699 -15.333 -33 -46 -85l-181 -373c0 -16 -3.66699 -24 -11 -24v-8l6 -8c-32.667 -59.333 -57.667 -116.333 -75 -171c-42.667 -88 -72 -162.667 -88 -224c-18 -34 -34 -78.667 -48 -134
l-40 -98c-18.667 -30.667 -38.334 -46 -59.001 -46h-3c-15.333 0 -26.666 12.667 -33.999 38v5c21.333 45.333 43.333 98.666 66 159.999l67 179l78 176l58 144c11.333 22 20.333 47.667 27 77c12.667 16.667 30.334 53.334 53.001 110.001
c10.667 10.667 16 20.334 16 29.001c-13.333 37.333 -34.666 56 -63.999 56c-33.333 16 -60.666 41.667 -81.999 77l-57 70l-64 58c-84.667 79.333 -165.334 149.666 -242.001 210.999c-33.333 19.333 -94.666 71 -183.999 155c-39.333 20 -59 38.667 -59 56v24
c2.66699 16 10.667 24 24 24z" />
    <glyph glyph-name="Z" unicode="Z" horiz-adv-x="1400" 
d="M1106 1850l26.999 -8.00195l36 3c24.667 -10 37 -25.333 37 -46v-3c0 -11.333 -9.66699 -24.666 -29 -39.999c-60 -61.333 -90 -106.333 -90 -135c-47.333 -86.667 -80.666 -142.667 -99.999 -168l-113 -187c-18 -16.667 -40.667 -49 -68 -97
c-24 -36.667 -51 -72 -81 -106c-12 -24.667 -58 -84 -138 -178c-8 -14.667 -44 -63.334 -108 -146.001c-72 -106 -126.333 -182.667 -163 -230l-75 -127c-23.333 -28 -37 -48 -41 -60c0 -7.33301 4.66699 -11 14 -11v-2l13 2h1025c16.667 -10 25 -28 25 -54
c-2.66699 -12.667 -6.33398 -19 -11.001 -19h-998c-53.333 -1.33301 -104.666 -13 -153.999 -35l-19 -3h-19c-16.667 0 -27.667 12 -33 36v10c0 8.66699 19 33.334 57 74.001l54 73c16 30 36.667 61.333 62 94c25.333 44 69.666 109 132.999 195
c32.667 54.667 80.334 119.667 143.001 195c0 6.66699 26.333 40 79 100c0 8.66699 22.333 37.334 67 86.001c15.333 24 35.333 50.333 60 79l65 92c8.66699 18.667 26.667 45.667 54 81c72.667 116.667 114 187 124 211c22 24 58.333 89 109 195l21 40l-11 8h-1055l-5 6v67
l5 6h1036z" />
    <glyph glyph-name="bracketleft" unicode="[" horiz-adv-x="600" 
d="M366 1850c32 -4 48.002 -16.002 48.002 -36.002v-2c-24.667 -30.667 -51.667 -46 -81 -46h-116c-32 -6 -48 -24 -48 -54v-62l-13 -64l5 -74l-5 -33v-59l-10 -59v-220l-3 -2l3 -3v-2c0 -70.667 -4.33301 -138 -13 -202v-185c-6.66699 -42.667 -12.667 -100.667 -18 -174
c-6.66699 -19.333 -11 -56 -13 -110l-10 -35v-5h3c-2.66699 -63.333 -5.33398 -95 -8.00098 -95c0 -30.667 12 -46 36 -46h79l136 31h12c12 -6 18 -13.667 18 -23c0 -34.667 -22 -59.667 -66 -75h-21l-245 -15c-17.333 0 -29.333 28 -36 84c10 41.333 15 90 15 146
c4 1.33301 7.66699 33 11 95c10 16.667 15 47.334 15 92.001c7.33301 0 11.666 65.667 12.999 197l-3 2v3l8 33l-3 44l18 202l-2 48l2 103v20l-2 64c3.33301 54.667 9.33301 88 18 100l-3 20l5 116l-2 38l5 61c0 40.667 -5.33301 67.334 -16 80.001
c-2.66699 0 -7.66699 6 -15 18v17c0 14 18.667 28.667 56 44c2 4 24.333 10.667 67 20h7c6 -4.66699 19 -8 39 -10c0 4.66699 44.333 9 133 13z" />
    <glyph glyph-name="backslash" unicode="\" horiz-adv-x="1200" 
d="M33 1843l9.00195 0.00195312c30 0 55 -38 75 -114c25.333 -36.667 49.666 -85 72.999 -145c0 -10 21.333 -40 64 -90l95 -150c52 -82 79.667 -123 83 -123c25.333 -31.333 49.666 -67.666 72.999 -108.999c18 -20.667 36.667 -50.334 56 -89.001
c19.333 -22 49 -66.667 89 -134c31.333 -41.333 53.666 -80.333 66.999 -117c20.667 -22.667 48.667 -76.667 84 -162c38.667 -61.333 58 -101.333 58 -120c30 -34.667 60.667 -84 92 -148c37.333 -54.667 56 -85.334 56 -92.001v-5c0 -8.66699 -15 -23.667 -45 -45h-5
c-26.667 0 -45.334 21.333 -56.001 64l-128 215c-1.33301 18 -14.333 47 -39 87c-11.333 16.667 -32 60.334 -62 131.001c-26 41.333 -45.333 77.333 -58 108c-69.333 98 -125.333 182.667 -168 254c-12 13.333 -27.667 39.333 -47 78
c-24.667 25.333 -62.667 80.333 -114 165c-55.333 77.333 -92.666 136 -111.999 176c-33.333 36 -57.666 74 -72.999 114c-16 47.333 -43.667 97.666 -83 150.999c-11.333 8.66699 -17 31.667 -17 69c0 15.333 11 25.666 33 30.999z" />
    <glyph glyph-name="bracketright" unicode="]" horiz-adv-x="600" 
d="M342 1839c24 -9.33301 36.002 -20.999 36.002 -34.999l-17 -228l2 -81v-43c0 -96.667 -2.33301 -145 -7 -145l3 -2v-2c-3.33301 -4.66699 -5.66602 -15 -6.99902 -31c0.666992 -12.667 2 -19 4 -19l-2 -12v-10l9 -47l-11 -74l-3 -140c-6 -20.667 -9 -37.334 -9 -50.001
l7 -21l-7 -45v-212c0 -39.333 1.33301 -59 4 -59l-2 -10l2 -45l-2 -19l2 -16l-4 -55l2 -2l-2 -12v-22c0 -18 3 -38.333 9 -61v-72c0 -8.66699 -14.333 -18 -43 -28c-8 0 -29.333 -8.66699 -64 -26c-22.667 -10 -42.334 -15 -59.001 -15h-14
c-12.667 0 -29.334 3.33301 -50.001 10l-38 -2c-15.333 0 -27.333 11.667 -36 35v14c0 10 15 18 45 24l100 -7c21.333 14.667 46.666 27.334 75.999 38.001l5 12l-7 47l2 67l-2 45l7 40l-3 10l3 57v26l-5 81l2 33l-4 36l2 31v26l2 2l-2 3v26l7 57v42l5 17v5h-2
c1.33301 36 4.33301 61.333 9 76l-2 7l2 14l-2 10c2.66699 6.66699 5 27 7 61l-3 119l3 128l9 62v53c-8 29.333 -12 59.333 -12 90l3 31c6 0 10 20.333 12 61v48c0 17.333 -13.667 27.666 -41 30.999l-47 -5l-10 2h-4c-68 -12.667 -122 -19 -162 -19h-5l-2 3l-2 -3h-3
c-17.333 8 -26 18.333 -26 31c0 28.667 30 43 90 43l12 2l3 -2l78 7h104z" />
    <glyph glyph-name="asciicircum" unicode="^" horiz-adv-x="800" 
d="M337 1759c11.333 0 29.002 -18.001 53.002 -54.001c22 -20 36 -36.333 42 -49c11.333 -12 33.666 -37.667 66.999 -77c4.66699 -4 20.334 -24 47.001 -60l70 -77c5.33301 -9.33301 8 -17 8 -23s-6.33301 -12.333 -19 -19c-10 0 -28 17.333 -54 52
c-18 16.667 -33.667 35.667 -47 57l-36 45c-6.66699 5.33301 -27 28 -61 68c-6 3.33301 -16.667 17 -32 41c-23.333 23.333 -37.333 35 -42 35c-45.333 -21.333 -75.333 -39.666 -90 -54.999c-37.333 -40 -57.333 -66.667 -60 -80c-8 -15.333 -26.333 -38.333 -55 -69
c-13.333 -16.667 -39.666 -42.667 -78.999 -78c-10.667 -8 -22 -13.333 -34 -16c-10 4.66699 -15 8.33398 -15 11.001c0 19.333 14 36.333 42 51c25.333 23.333 51.666 51.666 78.999 84.999c11.333 10.667 26.666 33 45.999 67c6 4.66699 15.667 17.667 29 39
c13.333 17.333 28 31.333 44 42l48 30c29.333 22.667 45.666 34 48.999 34z" />
    <glyph glyph-name="underscore" unicode="_" 
d="M868 323c16.667 0 36.334 -15.667 59.001 -47v-15c0 -10 -23.333 -21.667 -70 -35l-36 -3c-8.66699 3.33301 -56.334 6.33301 -143.001 9c-118.667 0 -215.667 -6 -291 -18h-41l-103 -11h-17v6l-24 3c-54.667 -4 -82 -8 -82 -12h-85c-16 0 -27.667 11.667 -35 35v6
c-0 31.333 29.333 49 88 53l21 -3l52 3h6l65 -3l20 3l53 -3l244 29h176l49 -9l36 9h41z" />
    <glyph glyph-name="grave" unicode="`" horiz-adv-x="400" 
d="M132 1600c24 -14 40.002 -34.001 48.002 -60.001c0 -7.33301 6.66699 -23.333 20 -48v-23c-8.66699 -43.333 -33.334 -95.666 -74.001 -156.999c-32 -32 -54.667 -48 -68 -48c-12.667 0 -20.334 9.33301 -23.001 28h3l-3 3v3l40 68c18.667 36 28 65.667 28 89l-20 79v20
c0 30.667 16.333 46 49 46z" />
    <glyph glyph-name="a" unicode="a" horiz-adv-x="1085" 
d="M493 1200l43 -0.000976562c135.333 -42.667 203 -91 203 -145l-58 -290v-174c0 -164 43.333 -246 130 -246l73 87h29l29 -29c0 -51.333 -38.667 -104.666 -116 -159.999c-144 0 -221.333 106.333 -232 319v116l-159 -290c-23.333 -44 -81.333 -106.667 -174 -188
c-164.667 0 -247 72.333 -247 217l-14 44c0 287.333 125.667 524 377 710zM87 489.999c0 -135.333 38.666 -203 115.999 -203c98.667 0 253.334 260.667 464.001 782l-160 44c-123.333 0 -244 -120.667 -362 -362z" />
    <glyph glyph-name="b" unicode="b" 
d="M24 2366h41l32 -41v-97l33 -511l-8 -32l16 -49v-130l8 -32l-8 -9v-8l16 -97l-8 -41l8 -210l-8 -57l8 -25l-8 -56h16c98 151.333 214.333 227 349 227h33c99.333 -16.667 169.333 -46.334 210 -89.001c84.667 -67.333 155 -210.666 211 -429.999
c0 -180.667 -62 -305.334 -186 -374.001l-114 -81h-65l-40 -8v8l-106 -24l-73 16l-8 -8h-8c-54.667 0 -125 32.333 -211 97c-16 -39.333 -37.667 -71.666 -65 -96.999h-24l-41 41v170l8 122l-8 40l25 154v309l8 56l-8 73v374l-8 32l8 33l-17 105v105l-8 49l8 8l-32 357l8 33
v81zM138 597l0.000976562 -121l8 -33l-8 -32v-41c0 -10.667 21.667 -16 65 -16v-8l8 8h8c38.667 -43.333 76.667 -65 114 -65l48 -8v-8l8 8h9c158.667 0 256 21.667 292 65c82.667 49.333 142 136 178 260v16c0 134 -48.667 263.667 -146 389
c-58 59.333 -117.333 89 -178 89h-17c-126.667 0 -229.334 -73 -308.001 -219c-27.333 0 -54.333 -94.667 -81 -284z" />
    <glyph glyph-name="c" unicode="c" horiz-adv-x="904" 
d="M511 1198l37.9971 0.000976562c46.667 -4.66699 94.334 -25.334 143.001 -62.001l7 -6v-13c0 -10 -14.667 -20.333 -44 -31l-69 44l-25 -7l-37 7c-97.333 -18 -161.666 -41 -192.999 -69c-24.667 0 -72.667 -41.667 -144 -125l6 -6v-6
c-62 -105.333 -93 -188.666 -93 -249.999l6 -31c-12.667 -4 -19 -16.333 -19 -37v-32c42 -195.333 133.667 -293 275 -293c50 7.33301 87.333 26 112 56l125 100l43 13c28.667 0 49.667 -10.667 63 -32v-6c0 -8 -16.667 -20.333 -50 -37
c-60.667 -64.667 -119 -106.334 -175 -125.001c0 -17.333 -22.667 -32 -68 -44l-7 7h-6l-62 -13c-93.333 0 -182.666 54 -267.999 162c-29.333 51.333 -52.333 118 -69 200v44c16.667 104.667 39.667 194 69 268c9.33301 0 23.666 29 42.999 87
c64.667 90.667 141.667 155 231 193c12.667 0 27.334 8.33301 44.001 25z" />
    <glyph glyph-name="d" unicode="d" horiz-adv-x="1228" 
d="M660 2154l19.999 0.00292969l12 -12l-4 -28l20 -56v-8l-4 -60l8 -192c11.333 0 19.333 -53.333 24 -160c8 0 13.333 -65.333 16 -196v-76l8 -44l-8 -52c10.667 -62.667 16 -108 16 -136l-16 -36l16 -68v-4l-4 -36l8 -32c-18.667 -40 -28 -129.333 -28 -268l12 -136
l-4 -16v-12l16 -20v-8l-8 -32c8 -8.66699 17.333 -35.334 28 -80.001h-4c0 -27.333 22.667 -63.333 68 -108c0 -17.333 22.667 -28 68 -32c45.333 0 68 21.333 68 64l48 36h12c4.66699 -0.666992 12.667 -11.334 24 -32.001l-4 -4l4 -20v-40
c-10.667 -10.667 -18.667 -25.334 -24 -44.001l-68 -44l-84 -16c-42 8 -76.667 28 -104 60c-64 77.333 -96 133.333 -96 168l-32 120v40l-8 8c-16 -34 -26.667 -67.333 -32 -100c-24 -24 -42.667 -54.667 -56 -92c-4.66699 0 -23.334 -20 -56.001 -60
c-7.33301 0 -30 -14.667 -68 -44c-24.667 0 -44.667 -8 -60 -24l-40 -16l-40 4l-44 -8c-44 0 -93.333 24 -148 72c-56 46 -84 82 -84 108c-8 0 -17.333 42.667 -28 128l8 80l-8 40c22 46.667 42 113.334 60 200.001c4.66699 0 16.667 22.667 36 68c7.33301 0 22 20 44 60
c84 81.333 140 126.666 168 135.999c40 8 84 22.667 132 44l44 4c76.667 -8 134 -21.333 172 -40h8v28l-4 36l4 16c-4 21.333 -8 32 -12 32l4 20v8c-9.33301 258.667 -20 388 -32 388l16 44c-11.333 0 -20.666 101.333 -27.999 304l-4 12l4 12l-4 4
c2.66699 96 13.334 144 32.001 144zM475.999 1054l-56.001 -0.00195312c-117.333 -47.333 -176 -87.333 -176 -120c-58.667 -59.333 -88 -99.333 -88 -120c-8 0 -12 -13.333 -12 -40c-29.333 -66 -44 -114 -44 -144l-4 -44c0 -91.333 10.667 -154 32 -188l-4 -16l80 -72
l8 -12l20 4l56 -8h24c19.333 0 51.333 13.333 96 40c24.667 6.66699 50 25.334 76 56.001c0 6 12 24.667 36 56c0 10 14.667 39.333 44 88c14.667 52.667 25.334 83.334 32.001 92.001c18.667 102.667 38.667 186.667 60 252l8 100c0 28 -37.333 53.333 -112 76l-52 4z" />
    <glyph glyph-name="e" unicode="e" horiz-adv-x="821" 
d="M494 1198c42.667 -5.33301 80.665 -15.334 113.998 -30.001c44.667 -38.667 67 -74.667 67 -108c0 -44.667 -5.33301 -87 -16 -127c0 -18.667 -14.667 -36.667 -44 -54l-94 -60c-38 -18 -70.667 -37.333 -98 -58l-53 -33c-11.333 0 -32.666 -11.333 -63.999 -34
c-6.66699 0 -30.334 -15.667 -71.001 -47c-12.667 0 -25 -6.66699 -37 -20c-25.333 0 -41 -8 -47 -24c-38 -10.667 -57 -23 -57 -37v-6c11.333 -31.333 21.333 -69.333 30 -114c20.667 -46 43.334 -78.667 68.001 -98c0 -6 16.667 -19.333 50 -40
c48 -8.66699 80.333 -18.667 97 -30h27c26 10.667 52 16 78 16c29.333 18 74 56.333 134 115c9.33301 0 19.333 6.66699 30 20h14c13.333 -8.66699 20 -19 20 -31c-13.333 -19.333 -20 -42.666 -20 -69.999c-5.33301 0 -21 -14.667 -47 -44
c-9.33301 0 -19.666 -10 -30.999 -30c-6 0 -18.333 -6.66699 -37 -20c-8 0 -23.667 -6.66699 -47 -20l-100 -14l-11 4l-3 -4h-3c-62.667 14.667 -94 24.667 -94 30c-14 0 -38.667 9 -74 27c-7.33301 0 -28.666 20.333 -63.999 61c-10.667 0 -19.667 13.333 -27 40
c-22.667 23.333 -41.667 64.666 -57 123.999c-4 0 -6.33301 5.66699 -7 17v37l-20 67l27 155c6 0 11.667 19 17 57c18 34.667 29 60.334 33 77.001l24 47l23 41c80 100.667 145 156.667 195 168c19.333 18 48.666 30.333 87.999 37c0 4 5.33301 6 16 6h44zM352.998 1097
c-9.33301 -20 -24 -29.999 -44 -29.999c-31.333 -20 -58.333 -48 -81 -84c0 -4.66699 -15.667 -20.334 -47 -47.001c0 -16 -7.66699 -32.667 -23 -50l-34 -88c-10.667 -21.333 -16 -40.333 -16 -57c-9.33301 -3.33301 -14 -11 -14 -23v-27l-7 -10v-14h24
c20 19.333 52.333 35 97 47c0 10.667 13.667 19.667 41 27c4 10 27.333 23.667 70 41c6.66699 13.333 18 20 34 20l77 50c0 7.33301 13.333 16.333 40 27c14.667 16 35 29.333 61 40c30 18 53.333 38.333 70 61l-3 33l10 41c0 16 -18 36 -54 60
c-34.667 13.333 -73.667 20 -117 20c-12 0 -32.333 -12.333 -61 -37h-23z" />
    <glyph glyph-name="f" unicode="f" horiz-adv-x="708" 
d="M469 1854l17.999 -2.99902h56c34.667 0 52 -13 52 -39c0 -16 -5.66699 -24 -17 -24l-35 7c-93.333 -12.667 -140 -25.667 -140 -39c-44.667 -38 -67 -60 -67 -66s-9.33301 -17.667 -28 -35c0 -10.667 -7 -26 -21 -46c0 -26 -7 -58.667 -21 -98l4 -24l-18 -67l4 -31
l-11 -28l11 -56l-7 -42l3 -21l-7 -133l7 -70v-28l-3 -25l3 -31v-81l-3 -21c2.66699 -14 6 -21 10 -21c19.333 7.33301 44 12 74 14c0 8.66699 29 17 87 25l11 3c32.667 -8 49 -24.333 49 -49l3 -35l-59 -14l-42 7c-53.333 -25.333 -94.333 -38 -123 -38l-7 -14l14 -60
c-1.33301 -18.667 -3.66602 -28 -6.99902 -28c4.66699 -9.33301 7 -22 7 -38v-130l4 -84l-4 -24l4 -11l-4 -14l18 -38c0 -8 -4.66699 -16.333 -14 -25l17 -42l-14 -80l21 -116l4 -10l-4 -39l7 -24l-10 -35l17 -140l-7 -49v-116c-14.667 -32.667 -28.667 -49 -42 -49l-98 -14
c-18.667 0 -37.334 14 -56.001 42v11c0 18.667 10.667 28 32 28l42 -4c18.667 0 35 10.667 49 32l-4 24l4 49c-7.33301 20 -11 57.333 -11 112v4l-3 21l7 28c-7.33301 11.333 -11 28.666 -11 51.999v95c0 21.333 -5.66699 44.666 -17 69.999l3 77l-3 49l10 42v3l-10 32
l-4 224v17c0 26 -4.66699 67 -14 123l4 35l-4 3h-14c-8 -16 -30 -24 -66 -24c0 -4.66699 -14 -9.33398 -42 -14.001c-30.667 10.667 -46 23.334 -46 38.001c-4 0 -6.33301 8.33301 -7 25v17c10 14 19.333 21 28 21l42 -7h4c70 21.333 105 36.666 105 45.999l-4 17v109l4 59
l-7 84l3 18v3l-10 39c4.66699 0 8 35 10 105l-7 73l7 32l-3 17c4.66699 76.667 11.667 130.334 21 161.001c0 18.667 5.66699 36.334 17 53.001l-3 3v4c0 10.667 5.66699 24.667 17 42l42 87c10.667 0 35.334 24.667 74.001 74l87 24c0 7.33301 14 11 42 11v3z" />
    <glyph glyph-name="g" unicode="g" horiz-adv-x="929" 
d="M521 1204l33 -2.99902l26 3c46 -18.667 69.333 -32 70 -40c14.667 -17.333 35.667 -26 63 -26l4 -4l18 -15v-3l4 -100l-18 -66v-23c0 -60.667 -7.66699 -122 -23 -184l4 -56v-129c0 -24.667 -2.33301 -37 -7 -37l3 -44v-45l-3 -22l3 -18l-14 -56l3 -59v-15l-3 -22
c12 -16.667 18 -29 18 -37c0 -43.333 -5 -89 -15 -137c10 -16.667 16.333 -36.334 19 -59.001l-4 -84v-8c0 -9.33301 -7.33301 -21.666 -22 -36.999l7 -66l-7 -44v-23c-7.33301 -7.33301 -14.666 -29.333 -21.999 -66c-27.333 -36.667 -48.333 -55 -63 -55
c0 -17.333 -35.667 -36 -107 -56h-11l-122 -7c-69.333 7.33301 -104 17 -104 29c-21.333 0 -55.666 27.333 -102.999 82c-39.333 53.333 -59 89 -59 107h3c-9.33301 21.333 -15.333 44.666 -18 69.999c0 18.667 13.667 36 41 52c16 0 30.667 -13.667 44 -41l-4 -33
c0 -42 22.333 -82.667 67 -122c16 -32 35.667 -48 59 -48l55 -26c50 0 94.333 7.33301 133 22c8 0 26.667 7.33301 56 22c11.333 0 29.666 17.333 54.999 52c14.667 52 22 92.667 22 122l-3 11l14 33v8l-7 33l7 41l-11 114v110l-3 48l3 52v89l-3 41l14 29l-7 81l11 30l-4 4
h-3c-16.667 -24.667 -25.334 -47 -26.001 -67l-52 -77c0 -30.667 -21 -63 -63 -97c0 -8.66699 -9.66699 -16 -29 -22c-42 -56.667 -98.667 -85 -170 -85c-75.333 10.667 -121 26.667 -137 48c-14.667 7.33301 -24.667 18.666 -30 33.999c-22 9.33301 -33 24 -33 44
c-18 20.667 -36.333 60 -55 118c-7.33301 0 -11 7.33301 -11 22h-4l4 15l-4 44l4 82v18c0 14.667 7.33301 45.667 22 93c0 22 12.333 60 37 114c0 15.333 17.333 45 52 89c0 4.66699 8.33301 13.334 25 26.001c0 20 16 39.667 48 59c64 66.667 109.667 103.667 137 111
c56 26 121.333 46.667 196 62zM85 672.001l-0.000976562 -7l-4 -70l4 -30l-4 -40c0 -20.667 15 -62.667 45 -126c8.66699 0 18.334 -16 29.001 -48l78 -48c75.333 0 125.666 18.333 150.999 55c31.333 16 63.333 54.333 96 115c28.667 32.667 46 66 52 100l52 96
c0 14 6 31 18 51c20 82 30 142.333 30 181c0 40 8.66699 82 26 126v22c-24.667 54.667 -45.667 82 -63 82l-19 -4c-12.667 7.33301 -25 11 -37 11h-3c-38.667 0 -77 -12.333 -115 -37c-30 -2 -60.667 -18 -92 -48c-18.667 -0.666992 -42 -21.667 -70 -63
c-20 0 -30 -9.66699 -30 -29c-28 -24 -47.667 -51.333 -59 -82c-4 0 -11.333 -13.333 -22 -40c-5.33301 0 -9 -8.66699 -11 -26c-11.333 0 -18.666 -21 -21.999 -63c-5.33301 -2 -10.333 -18 -15 -48c-10 -8.66699 -15 -18.667 -15 -30z" />
    <glyph glyph-name="h" unicode="h" horiz-adv-x="1200" 
d="M47 2057c14.667 -6 30.335 -23.0049 47.002 -51.0049l-14 -36v-201l-3 -117l3 -27l-3 -27l3 -37l-3 -3v-3l3 -14l-3 -73l3 -64l-3 -13l3 -47v-70l-3 -71l7 -40l-7 -40l3 -47l-3 -43l3 -37l-3 -64l7 -110l-7 -30l3 -10l-3 -10c0 -32.667 6.66699 -57.334 20 -74.001
c15.333 17.333 36.666 56.333 63.999 117c18 16 28 31.667 30 47c4 0 14 11.333 30 34l53 70l51 47c6.66699 0 30 22.333 70 67c44.667 26.667 71.334 40 80.001 40c16 14 49.667 28.333 101 43l50 7l26 -3l27 3c36.667 0 72.334 -35.667 107.001 -107
c16 -68.667 24 -111 24 -127l-4 -24l4 -40c0 -102 -6.66699 -192.333 -20 -271v-10l3 -30l-7 -77c0 -36 6.66699 -64 20 -84c21.333 -42 46 -63 74 -63c16 4.66699 38.333 21.334 67 50.001l40 3c15.333 -5.33301 23 -9.66602 23 -12.999v-24
c-10.667 -7.33301 -16 -17.333 -16 -30c0 -15.333 -25.667 -34.333 -77 -57h-7l-10 4c0 -6.66699 -12.333 -10 -37 -10h-3l-3 3l-4 -3h-3c-14.667 0 -42.667 17.667 -84 53c-9.33301 0 -23.666 21.333 -42.999 64c-4.66699 0 -7 11 -7 33l-13 17l6 10v10l-6 27v47
c8.66699 32 14 82 16 150l-3 10l13 81l-3 10l10 70c0 35.333 -5.66699 73.333 -17 114c0 52.667 -6.66699 88.334 -20 107.001c-14.667 20 -29 30 -43 30l-14 3c-61.333 0 -118 -19 -170 -57l-14 4c-4.66699 -16 -13.334 -24 -26.001 -24
c-14.667 -20.667 -30.334 -34 -47.001 -40c-8 -13.333 -23.667 -29 -47 -47c-9.33301 -28.667 -26 -47.667 -50 -57c0 -9.33301 -16.667 -33.666 -50 -72.999c0 -8.66699 -7 -17.667 -21 -27c-4.66699 -31.333 -21.334 -72.666 -50.001 -123.999l-20 -50
c-8.66699 -25.333 -15.334 -60 -20.001 -104c-7.33301 0 -13 -30 -17 -90c-6.66699 -8.66699 -10 -17.667 -10 -27v-130c0 -29.333 -14.333 -44 -43 -44c0 -4 -4.66699 -6 -14 -6c-22.667 10.667 -34.667 19.334 -36 26.001v17l-7 117l7 47v194l-4 44l4 16l-7 184l7 30
l-7 61v16l3 138l4 3v3l-4 14l4 23l-7 84c4.66699 58 7 135 7 231l-4 40l4 43v24l-4 50l4 20l-4 23l4 87v124l-4 34l4 30v53c14.667 54 26.667 81 36 81h4zM84.001 680.995v-3h6v3h-6z" />
    <glyph glyph-name="i" unicode="i" horiz-adv-x="535" 
d="M148 1860l11 0.000976562c24.667 0 45.667 -15 63 -45l35 -103c-12.667 -84 -36 -126 -70 -126l-39 -15h-21c-8.66699 0 -30 10.667 -64 32c-42 21.333 -63 49.666 -63 84.999v17l25 78l84 63c12.667 9.33301 25.667 14 39 14zM166 1755v-32l-14 -49v-4h10l25 21v21
l-7 50h-7zM123 1194l28.998 0.000976562c6.66699 0 13.667 -15.333 21 -46l14 -14v-24l-4 -43l4 -52v-36l-4 -134l4 -17l-4 -36l4 -21l-7 -21c0 -96.667 4.66699 -181.334 14 -254.001l-7 -35l14 -123v-25c0 -16.667 8.33301 -25 25 -25h24c12.667 0 37.334 12 74.001 36
c8 0 15 11.667 21 35l53 18h11c6 0 10.667 -16.667 14 -50c4.66699 0 7 -7 7 -21c-11.333 -30.667 -30 -46 -56 -46c-37.333 -32.667 -65.666 -49 -84.999 -49l-63 -11c-49.333 0 -82.333 17.667 -99 53l-14 57l-4 193l4 22l-14 158l3 18l-7 74c9.33301 62 14 110 14 144
l-3 4l3 25v155l-3 67c6 14.667 11.667 22.667 17 24z" />
    <glyph glyph-name="j" unicode="j" horiz-adv-x="686" 
d="M371 1846c53.333 -10.667 80 -30.999 80 -60.999v-8l-4 -11l4 -19v-34l4 -35c-6 -28.667 -15 -50.334 -27 -65.001c0 -20 -6.33301 -30 -19 -30c-12.667 -22.667 -29.334 -34 -50.001 -34l-26 -4c-67.333 34.667 -101.666 58.667 -102.999 72l-8 46l4 30l-4 23
c31.333 86.667 81 130 149 130zM392 1743l8 -65l-4 -26h8c15.333 16 23 31 23 45c0 42 -5.33301 65 -16 69c-12.667 -5.33301 -19 -13 -19 -23zM313 1278l16.999 1.00098c14 -5.33301 21.667 -18.666 23 -39.999c-8 -19.333 -12.667 -46 -14 -80
c-9.33301 -0.666992 -13 -14.667 -11 -42l3 -41l14 -51l1 -3l-5 -28l1 -14c18 -86.667 28.667 -152.334 32 -197.001l-4 -45l9 -72l-2 -65l17 -126l-11 -49l10 -38l-8 -28l20 -33l-4 -41l4 -14l-7 -42l10 -37c-6.66699 -2 -9.66699 -11.333 -9 -28l12 -157
c-2 -128 -7 -197.333 -15 -208c-4 0 -6.33301 -15 -7 -45c-6.66699 -0.666992 -10 -16 -10 -46c-43.333 -46.667 -71.666 -70.334 -84.999 -71.001c-36 -23.333 -62.333 -35.666 -79 -36.999l-4 -1c-50.667 -0.666992 -91.667 10.333 -123 33
c-20.667 19.333 -44.667 50.666 -72 93.999c-5.33301 -0.666992 -9.33301 7 -12 23h-4c0 32 4.66699 48.333 14 49l17 1c8 -3.33301 24.333 -22.666 49 -57.999c12.667 1.33301 24 -11.667 34 -39c8 0.666992 22.667 -9.66602 44 -30.999h3c44 12.667 70.667 25 80 37
c21.333 2 35.333 12.333 42 31c13.333 7.33301 19.333 21.666 18 42.999c9.33301 17.333 15.333 45.333 18 84c6 0 9.66699 11.667 11 35l-4 3c4 43.333 4.33301 101.666 1 174.999l-5 14l2 21l-7 54l7 80l-9 82l-10 133c-1.33301 12 2 26.333 10 43l-16 36l-2 21
c5.33301 19.333 8 44.666 8 75.999l-9 30l5 28l-6 31l1 38l-10 34l2 72l-5 13l2 28l-16 33l10 39v3c-12 11.333 -18.333 21.333 -19 30l-9 116c-1.33301 14.667 3 34.667 13 60c2 52.667 18.333 80.334 49 83.001z" />
    <glyph glyph-name="k" unicode="k" horiz-adv-x="1024" 
d="M31 1971l19.001 -0.000976562c22 -18.667 33.333 -30 34 -34v-186c8 -34 14 -78.667 18 -134l-3 -15l3 -72v-9l13 -19v-12c-8.66699 -11.333 -13 -20.666 -13 -27.999c7.33301 0 14.666 -60 21.999 -180l-3 -12l6 -31l-3 -53l3 -31l-3 -28l3 -31l-3 -3v-3l6 -19l-3 -19
l3 -55l-3 -41c2.66699 -10 6 -15 10 -15c11.333 35.333 35 65.333 71 90c1.33301 6 11.666 14.333 30.999 25c0 8.66699 11.333 19 34 31c0.666992 9.33301 24.334 26.666 71.001 51.999c12 0 30.667 10.333 56 31c15.333 0 46.333 10.333 93 31l35 3
c40 -4.66699 79.333 -21 118 -49c14 -34 21 -70.333 21 -109c-4 -42.667 -22.667 -89 -56 -139c-2 -14 -32 -44 -90 -90c-9.33301 0 -18.666 -9.33301 -27.999 -28c-6 0 -28.667 -11.667 -68 -35c-24 -18 -38.333 -27 -43 -27c-8.66699 0 -23.334 -5.33301 -44.001 -16v-9
c0 -5.33301 18.667 -11.666 56 -18.999l37 -25c0 -3.33301 19.667 -18.666 59 -45.999l25 -34c9.33301 0 20.666 -11.667 33.999 -35l31 -59c12.667 -19.333 31.334 -58.333 56.001 -117c8 0 17.333 -26 28 -78l6 -12c8.66699 0 17 -14.667 25 -44
c7.33301 0 25 -9.33301 53 -28c33.333 20.667 59.333 39.334 78 56.001h6l25 -25v-6c0 -36 -7.33301 -58.667 -22 -68c-26 -14.667 -50 -22 -72 -22h-12c-64 0 -96 16.667 -96 50c-7.33301 0 -16.666 11.333 -27.999 34c-6 0.666992 -12.333 11 -19 31
c-8 0 -20.333 28 -37 84c-14.667 22 -30.334 56 -47.001 102c-20 43.333 -45.667 77.333 -77 102c0 6 -12.333 17.667 -37 35c-24.667 34.667 -60 52 -106 52h-53c-66 -18.667 -99 -41.334 -99 -68.001l6 -28v-6l-3 -16l3 -18v-41l-9 -31l3 -52l-3 -59l3 -34
c-4 -8.66699 -6 -20.334 -6 -35.001v-34c0 -10 -10.333 -15 -31 -15l-19 -13h-6c-20.667 13.333 -31 28 -31 44h3l-6 34l6 19l3 121c8.66699 0 14 17.333 16 52l-3 47v22l-4 18l7 19v9c-10.667 10.667 -16 20 -16 28v13l16 21l-3 3v7l3 40c-12.667 39.333 -19 66.333 -19 81
c-4 0 -6 4 -6 12l3 19l-3 24l6 78l-6 53c1.33301 16.667 3.33301 25 6 25c-4 0 -7 38 -9 114l-3 4v3l3 3v3l-3 43l3 16l-3 25l3 62c-4.66699 99.333 -12 161.333 -22 186v115l-3 46l3 38l-28 186l13 34c-10.667 14 -16 24.333 -16 31l3 31l-3 28c-0 12 10.333 23.333 31 34z
M130.001 812.999l-0.000976562 -46.001c12.667 -8.66699 19 -19 19 -31l-6 -19c4 0 6 -3 6 -9l-3 -19l3 -9c8 0 25.667 8.33301 53 25l71 37c8.66699 0.666992 21 8 37 22c18 0 54.333 20.667 109 62c24 17.333 46.667 38 68 62c14 0 40 27 78 81
c13.333 32.667 21.666 49 24.999 49c4 8 6 19.333 6 34v22c-16 39.333 -38.667 59 -68 59c-49.333 -18.667 -87.666 -31 -114.999 -37c-7.33301 -11.333 -26 -22.666 -56 -33.999l-84 -65c0 -8.66699 -9.33301 -19 -28 -31c0 -6 -8.33301 -16.667 -25 -32
c0 -4 -11.333 -20.333 -34 -49c-4 -4 -7 -16.333 -9 -37c-5.33301 -2.66699 -12.666 -12 -21.999 -28c-16.667 0 -25 -2.33301 -25 -7z" />
    <glyph glyph-name="l" unicode="l" horiz-adv-x="455" 
d="M10 2080h22c10.667 0 24.334 -10.333 41.001 -31v-32c0 -7.33301 3.33301 -14.666 10 -21.999v-4l-7 -25v-6c6.66699 -8 10 -15.667 10 -23l19 -254l-3 -22c2 -137.333 6 -206 12 -206l-9 -29v-3c8 0 13.333 -27.667 16 -83l-7 -35l7 -22l-10 -22
c6.66699 0 12 -38 16 -114l-3 -35c2 -48.667 5 -81.667 9 -99l-12 -50l9 -29l-3 -16l3 -25l-3 -32l6 -32l-3 -35l3 -86v-22l-3 -12l3 -4v-3l-3 -22l7 -32l-4 -13l4 -50v-10l-4 -19l4 -9l-4 -32l4 -70l-4 -10l4 -12v-35l19 -67l9 -6c6.66699 0 18.334 5.33301 35.001 16
c24 2.66699 46.333 14.334 67 35.001h3c27.333 -12 41 -33.333 41 -64c-27.333 -8.66699 -41 -20.334 -41 -35.001c-6 0 -29.333 -10.667 -70 -32h-6l-23 7l-19 -7c-14.667 0 -30.334 10.667 -47.001 32c-10.667 0 -24.334 33 -41.001 99l-10 9v16
c6.66699 8 10 15.333 10 22c0 7.33301 -3.33301 14.666 -10 21.999v7l-3 35l6 139l3 4v3c-4 8 -6 19.667 -6 35v168l-3 13l3 3v3l-3 130v10l3 47l-3 54v93c0 18 -2.33301 31.667 -7 41l4 13l-13 34l3 20l-6 44l3 70l-3 28l3 35l-13 286l3 22l-6 42l3 22
c0 24.667 -6.33301 67 -19 127l-3 32l3 76v38z" />
    <glyph glyph-name="m" unicode="m" horiz-adv-x="1800" 
d="M1333 1225l22.0049 0.00292969c39.333 -13.333 59 -30.666 59 -51.999c22 0 35.667 -34.333 41 -103c8 -14.667 15.333 -50.334 22 -107.001l-4 -67l4 -44l-7 -37l3 -33l-3 -56v-40l-4 -15l4 -15v-18c0 -8.66699 -5 -21 -15 -37l4 -22l-11 -111v-37l-4 -115
c0 -66 8.66699 -99 26 -99c46.667 14.667 70 31.667 70 51l37 19h11c19.333 -7.33301 39 -11 59 -11l11 -15v-11c0 -18 -19.667 -36.667 -59 -56c-4 -17.333 -46 -39.333 -126 -66c-46.667 0 -79.667 21 -99 63c-10 19.333 -17.333 67.333 -22 144
c0 47.333 7.33301 140.666 22 279.999l-4 23c12 24 18 44.667 18 62l-3 37l7 74l-4 59v126c0 14 -9.66699 53.333 -29 118l-37 29h-22c-66.667 -14.667 -112.334 -35.334 -137.001 -62.001c-6.66699 0 -12.667 -7.33301 -18 -22c-20.667 -6.66699 -51.667 -37.667 -93 -93
c-51.333 -63.333 -84.333 -107.666 -99 -132.999l-52 -125c-9.33301 0 -15.333 -17.333 -18 -52c-4.66699 0 -11 -18.333 -19 -55c-14 -10.667 -26.333 -50.334 -37 -119.001c-6.66699 0 -12.667 -20.667 -18 -62l-41 -82l-22 -7c-18 0 -34 17.333 -48 52l4 88l-4 11l4 23
l-4 33l11 85l-7 77l7 59c-23.333 150 -50.333 234 -81 252c-24.667 -10 -49.334 -16.333 -74.001 -19c-0.666992 -4 -19 -15 -55 -33l-60 -44c0 -8 -11 -18 -33 -30c0 -6.66699 -18.333 -31.334 -55 -74.001c0 -6.66699 -7.33301 -17.667 -22 -33
c0 -18 -12.333 -41.333 -37 -70c-8.66699 -38 -20 -65 -34 -81c-16.667 -94 -25 -171.667 -25 -233l-4 -4l4 -33v-19l-4 -110c-22 -10 -33 -22.333 -33 -37c-9.33301 -7.33301 -18 -11 -26 -11h-4c-20.667 0 -35.334 20.667 -44.001 62l7 30l-7 48l4 33l-8 30l4 70v52l22 81
l-4 44l11 37l-3 26l7 22v11c0 9.33301 -5 20.333 -15 33v37l-3 59l7 37c-15.333 76.667 -27.666 121 -36.999 133c-13.333 39.333 -23 59 -29 59l-4 4h-4l-40 -4c-10 0 -20 18.667 -30 56c0 20.667 21 34 63 40l11 4h29c31.333 -16 53.666 -43 66.999 -81l33 -85
c9.33301 -33.333 16.666 -96 21.999 -188l-3 -37l11 -8c7.33301 0 14.666 15 21.999 45c14.667 7.33301 25.667 24.333 33 51c92 96 151 144 177 144c0 14.667 40.667 33.334 122 56.001c4 9.33301 12.667 14 26 14h41c23.333 0 43 -18.333 59 -55
c19.333 -13.333 29 -38 29 -74c22 -55.333 37 -121.666 45 -198.999l-4 -52l4 -4h7c7.33301 1.33301 21 28.666 41 81.999c6 0 12 13.333 18 40l48 89l111 133c14.667 20.667 31.667 39 51 55c5.33301 11.333 24 23.666 56 36.999c28.667 32.667 60.667 53.667 96 63
c34 10 73.333 15 118 15z" />
    <glyph glyph-name="n" unicode="n" horiz-adv-x="1323" 
d="M121 1232c18 0 34.332 -9.33008 48.999 -27.9971c20.667 -6.66699 31 -18.334 31 -35.001l11 -20l-7 -21c8 0 18.333 -103 31 -309l-7 -104h10c4.66699 1.33301 16.334 19.666 35.001 54.999l80 108l104 121c42.667 44 70.334 66 83.001 66
c13.333 7.33301 28.666 20.333 45.999 39c30 17.333 60 31 90 41c0 10.667 34.667 22.334 104 35.001h87c36.667 -14.667 55 -28.667 55 -42c37.333 -29.333 56 -64 56 -104c6 0 11.667 -25.333 17 -76c5.33301 0 9 -10.333 11 -31v-28l3 -84l-7 -31l4 -34
c-6.66699 -25.333 -16 -112.333 -28 -261c-4 -4 -8.66699 -27 -14 -69l-4 -4l4 -31l-4 -28l4 -48l-4 -56l11 -38h14l73 38c8 0 25.333 10.333 52 31l20 7h4c34.667 -7.33301 52 -21 52 -41v-11l-42 -41c0 -4.66699 -9 -8.33398 -27 -11.001c0 -8.66699 -28 -20 -84 -34
c0 -10.667 -31 -17.667 -93 -21c-30.667 0 -50.334 28.667 -59.001 86l3 223l31 173v111l18 136c-12 101.333 -22.667 152 -32 152c-8 60.667 -36.667 91 -86 91h-25c-31.333 -14 -57.666 -21 -78.999 -21c-14 -13.333 -52.333 -36.666 -115 -69.999
c-39.333 -30 -91.333 -83 -156 -159c-80.667 -104.667 -132.667 -188 -156 -250c-8 0 -15 -16.333 -21 -49c-4.66699 0 -7 -3.33301 -7 -10l7 -31l-28 -87l-3 -56l3 -48c0 -65.333 -10.333 -103.666 -31 -114.999l-28 -35c-14 0 -30.333 15 -49 45v14
c9.33301 11.333 14 20.666 14 27.999l-14 21l4 31l-4 21c2.66699 41.333 7.33398 73.666 14.001 96.999l-3 38l3 46l-3 27l3 32l-10 24l21 111l-4 28l4 45l-4 66l7 31c-6 35.333 -11.667 96.666 -17 183.999c-9.33301 15.333 -14 27 -14 35v41l-7 7h-7
c-23.333 -3.33301 -44 -11.333 -62 -24l-11 -4c-15.333 0 -28 18.667 -38 56c0 14 19.667 29 59 45c11.333 0 28.666 4.66699 51.999 14h10z" />
    <glyph glyph-name="o" unicode="o" horiz-adv-x="1000" 
d="M433 1213l16.001 0.000976562l171 -60c0 -6 16.667 -20.333 50 -43v-7c10.667 0 23 -14.333 37 -43c8 0 14.667 -10.333 20 -31c4 0 10.667 -12 20 -36c40.667 -45.333 63 -90 67 -134c8.66699 0 13 -7.66699 13 -23l-3 -24l13 -57l-17 -160c-6.66699 0 -12 -19 -16 -57
c-22 -48.667 -46.667 -94.334 -74 -137.001c-46 -72 -99.333 -123.333 -160 -154l-104 -37l-97 -10c-80 6.66699 -125.667 18 -137 34c-22 0 -42 13.333 -60 40c-4.66699 0 -17 11 -37 33c-18 0 -41.333 31.333 -70 94c-6 0 -15 24.333 -27 73c-16 0 -25 59.333 -27 178
l7 56l-10 57c12 54 33.333 114.333 64 181c10 36.667 44.333 85.667 103 147c65.333 52.667 117.666 82.667 156.999 90l14 14h6c37.333 0 64.333 5.33301 81 16zM379.001 1123l-22.999 -0.00292969c-30.667 -23.333 -54.334 -35.666 -71.001 -36.999l-66 -53
c-45.333 -52 -71 -94.333 -77 -127c-29.333 -54 -45 -91 -47 -111l3 -23l-16 -37v-3l10 -57v-94c0 -20 11 -70 33 -150c12.667 -9.33301 28.334 -30.666 47.001 -63.999c16 -3.33301 36 -18.666 60 -45.999l50 -30l37 -10l10 3l87 -3c29.333 2 61.666 14 96.999 36
c17.333 0 39.666 11.333 66.999 34c11.333 0 29 15.667 53 47c0 6.66699 10 21 30 43l47 84h7v20l20 60v7l-4 20c14 19.333 21 48 21 86v21c0 91.333 -11.333 147 -34 167l-37 60c0 14 -12 34 -36 60c-15.333 36 -57.666 68.333 -126.999 97
c-15.333 0 -34.333 7.66699 -57 23c-38 -15.333 -66 -23 -84 -23z" />
    <glyph glyph-name="p" unicode="p" horiz-adv-x="1000" 
d="M344 1210l11 -0.000976562c9.33301 0 19.666 -5 30.999 -15l15 4c62 0 134.667 -23 218 -69l57 -58c0 -7.33301 10.333 -21.333 31 -42c0 -17.333 11.333 -31.333 34 -42c14 -53.333 28 -90 42 -110c10.667 -42.667 18.334 -93.667 23.001 -153
c0 -74.667 -7.66699 -125.667 -23 -153c0 -9.33301 -6.33301 -22 -19 -38c0 -19.333 -19 -51.333 -57 -96c0 -15.333 -6.33301 -26.666 -19 -33.999c-12 -18 -21 -27 -27 -27c-10 -6 -16.333 -17.333 -19 -34c-14.667 -6 -50.334 -34 -107.001 -84c-6 0 -27.667 -13 -65 -39
c-8 0 -25.667 -7.66699 -53 -23c-29.333 -10 -98.333 -26.333 -207 -49h-15c-24 0 -52 12.667 -84 38h-8l-7 -15l3 -19l-11 -157v-80l4 -38l-4 -35l11 -68l-3 -77l15 -122l-4 -50c12 -13.333 21 -40 27 -80l7 -8v-23l-7 -11v-15l7 -12v-23c-24 -30.667 -46.667 -46 -68 -46
c-28 0 -42 28.333 -42 85l11 19v3l-19 58v92c-10 76 -17.667 174 -23 294l4 27l-4 38l11 240l-3 53l3 62l-3 126l3 80l-3 4v4l11 80v107l4 283c6 15.333 11 23 15 23c-10 17.333 -15 32.333 -15 45l4 69l-4 4v4l19 38l-4 15c0 20.667 19.333 31 58 31h3
c8 -18 18.333 -27 31 -27l95 31c34.667 0 55.334 2.33301 62.001 7l34 -3zM298 1107h-49.998c-9.33301 0 -46 -14 -110 -42c-20.667 -3.33301 -31 -13.666 -31 -30.999v-69l-4 -22l4 -4l-4 -84v-84l-4 -42l4 -20l-4 -45l4 -27l-7 -19l3 -35l-7 -84v-210
c0 -18 17.667 -27 53 -27c13.333 -12.667 26 -19 38 -19l31 4l31 -4h7l46 23c34 0 66 10.333 96 31c43.333 10.667 73.666 26 90.999 46c13.333 0 31.333 14 54 42c57.333 44 93 86 107 126c8 0 22 25.333 42 76c22.667 30 34 64.333 34 103c0 48 -10 113 -30 195
c-6 1.33301 -17.667 21.666 -35 60.999c-6.66699 2.66699 -15.334 16.667 -26.001 42c-4.66699 0 -26.334 23 -65.001 69c-49.333 33.333 -92.666 50 -129.999 50h-96l-19 4z" />
    <glyph glyph-name="q" unicode="q" horiz-adv-x="1036" 
d="M552 1150c23.333 -16 54.0029 -24.001 92.0029 -24.001c0 -9.33301 16 -16 48 -20l40 -36h12c10 0 20.667 6.66699 32 20h20l44 -36c0 -78.667 -8 -134.667 -24 -168v-32l-20 -172v-108l-4 -56l4 -4v-4l-4 -4v-4l8 -60l-4 -16l4 -68l-4 -12l4 -24v-16l-4 -16l4 -16v-16
l-4 -12l4 -20v-116l-4 -16l8 -32l-8 -40c10.667 -26 16 -63.333 16 -112l-4 -48l8 -48l-4 -20l20 -72l-4 -4v-4l8 -40l-4 -12l4 -20l-4 -20c2.66699 -83.333 8 -138 16 -164c-8 -13.333 -12 -26.666 -12 -39.999c16 -30 24 -78 24 -144c13.333 0 20 -30.667 20 -92
c0 -23.333 -26.667 -47.333 -80 -72c-24 10 -36 23.333 -36 40v48l-12 52l12 64c-7.33301 17.333 -14 49.333 -20 96l8 84c-10.667 42 -18.667 99.333 -24 172l4 4c-2.66699 58 -8 96.667 -16 116v4l8 32v20l-12 32l12 44v12c-10.667 16 -16 32 -16 48l4 40l-4 72v60l-4 48
l4 44l-4 88l4 20c-8 14.667 -12 36 -12 64c5.33301 6 8 20.667 8 44h4l-4 12h-4c-6.66699 -3.33301 -36 -42 -88 -116c0 -7.33301 -12 -18 -36 -32c-2.66699 -9.33301 -29.334 -32 -80.001 -68c-18.667 0 -50.667 -13.333 -96 -40l-36 -4h-64c-42.667 0 -96 17.333 -160 52
c-38 50.667 -66 76 -84 76c0 9.33301 -6.66699 20 -20 32l-16 60l-20 64v128c13.333 27.333 22.666 64.666 27.999 111.999c37.333 89.333 60 137.333 68 144c9.33301 26.667 30.666 53.334 63.999 80.001c0 19.333 12 34 36 44c0 12.667 13.333 26 40 40c0 14 20 26 60 36
c20 22.667 69.333 40 148 52c24 0 41.333 5.33301 52 16h12zM520.003 1050l-24.002 3.99805c-47.333 -8 -87.333 -18.667 -120 -32c-11.333 0 -22 -5.33301 -32 -16l-56 -36l-68 -72c-13.333 -7.33301 -33.333 -38 -60 -92l4 -4v-4
c-37.333 -71.333 -56 -128.666 -56 -171.999l-20 -24l12 -32l-8 -24l12 -28l-12 -32c26.667 -66.667 46.667 -100 60 -100c14 -24 35.333 -44 64 -60l60 -24h100c68 30.667 120 62.667 156 96c74.667 104.667 112 167.334 112 188.001c16 22.667 26.667 56 32 100
c6.66699 0 13.334 41.333 20.001 124l-4 28c10.667 24 17.334 60 20.001 108c10.667 2.66699 16 10.667 16 24v12c0 24 -12 37.333 -36 40c-14 0 -64.667 12 -152 36z" />
    <glyph glyph-name="r" unicode="r" horiz-adv-x="950" 
d="M64 1192c64.667 0 102.668 -6.33301 114.001 -19c4.66699 0 21 -22.667 49 -68v-16l-4 -3c10 -13.333 17.667 -37.333 23 -72c10 0 15 -35.333 15 -106l-4 -12l8 -60l-4 -27h8c0 8.66699 7.33301 20 22 34c0 12.667 12.667 35.667 38 69l23 49
c6.66699 0 15.667 11.333 27 34l109 102c60.667 38 107.334 62 140.001 72h61c0 -8.66699 25.333 -15 76 -19c7.33301 -9.33301 11 -18.333 11 -27c-14.667 -30 -45 -45 -91 -45c-12.667 7.33301 -25.334 11 -38.001 11c-64 -22.667 -118 -59 -162 -109
c-34.667 -31.333 -64 -69.333 -88 -114c-30 -37.333 -45 -71.333 -45 -102c-10 0 -16.333 -20.333 -19 -61c-7.33301 0 -16 -25 -26 -75c-4.66699 0 -7.33398 -6.33301 -8.00098 -19v-23c0 -38 -6.33301 -68.333 -19 -91l8 -34v-4l-8 -30v-8l11 -34l-11 -38v-26l-4 -4l8 -64
c0 -35.333 -22.667 -53 -68 -53c-22.667 0 -34 10 -34 30l3 57l-3 23l3 19l-3 79l3 83l-7 76v4l4 57l-4 75v61l-4 189l4 23l-23 30l4 15c-18.667 50.667 -33.667 78.667 -45 84h-27l-61 -4c-17.333 2.66699 -26 10 -26 22c0 28.667 14 49 42 61z" />
    <glyph glyph-name="s" unicode="s" horiz-adv-x="957" 
d="M454 1198c56 -12 89.998 -27.6689 101.998 -47.002c6 -6.66699 19.333 -13.667 40 -21c2.66699 -7.33301 9 -15.666 19 -24.999v-9c0 -11.333 -8.33301 -21.666 -25 -30.999c-47.333 43.333 -81.333 65 -102 65c-32.667 0 -56.334 3 -71.001 9
c-6.66699 -6 -30.334 -10 -71.001 -12c0 -4 -12.333 -9.33301 -37 -16c0 -6 -13.333 -12 -40 -18c-7.33301 -12.667 -23 -26 -47 -40c-30 -34 -54.667 -83.667 -74 -149l-3 -71c0 -28.667 32 -43 96 -43h12c103.333 6 162 11 176 15h25l149 -15
c38.667 -15.333 70.334 -41 95.001 -77c20.667 -26 31 -52 31 -78c6.66699 0 12 -21.333 16 -64c6 0 9 -6.33301 9 -19h3l-3 -15l3 -65c-11.333 -39.333 -18.666 -59 -21.999 -59l-46 -68c0 -13.333 -11.333 -26.666 -34 -39.999
c-7.33301 -10.667 -38.333 -33.334 -93 -68.001c-6 0 -9 -3 -9 -9l-12 -7l-16 3h-15l-118 -24h-27l-37 9h-47c-59.333 0 -102.666 7.33301 -129.999 22l-52 21c-66 57.333 -99 94.666 -99 111.999c0 10.667 6.33301 20.667 19 30l12 44c0.666992 8 3.66699 12 9 12h19l9 -9
v-65c0 -10.667 19.667 -30.334 59 -59.001c6 -11.333 42 -25.666 108 -42.999l96 -3l77 6l9 -3c77.333 14 130 34.667 158 62c10.667 0 34.334 23.667 71.001 71c12.667 12.667 23 31 31 55v34l6 25l-28 111c0 20 -20.667 42.667 -62 68c0 6 -11.333 13.333 -34 22l-9 -3
l-80 9l-226 -12c-96 4.66699 -148.333 23 -157 55c-4.66699 23.333 -12 46 -22 68l9 22l-3 19c6 6.66699 10 32.334 12 77.001c4 0 10.333 11.333 19 34c6 0 9 11.333 9 34c19.333 23.333 38 50 56 80c11.333 0 33 15.333 65 46l52 25c10 0 32.667 7.33301 68 22h102z" />
    <glyph glyph-name="t" unicode="t" horiz-adv-x="837" 
d="M286 1922c16 -8 29.666 -19.333 40.999 -34v-27c-8.66699 -12 -13 -23.333 -13 -34c0 -58 -2.33301 -104.667 -7 -140l3 -34c-1.33301 -50 -4.66602 -75 -9.99902 -75l3 -38l11 -187l-4 -92l4 -11h10l61 14v-3l58 6l4 -3h3c46 9.33301 88 15 126 17
c5.33301 11.333 16.666 17 33.999 17h10l31 -3l4 3h3c22.667 -5.33301 34 -16.666 34 -33.999c-30.667 -43.333 -79.667 -65 -147 -65l-47 -13l-17 3c-11.333 0 -17 -2.33301 -17 -7l-24 4c-39.333 0 -74.666 -5.66699 -105.999 -17c-16 -4 -24 -11 -24 -21l7 -75l-3 -82
v-194l-11 -218l7 -45l-7 -23l11 -34l-4 -14l4 -48v-17c0 -9.33301 5.66699 -18.333 17 -27c11.333 -54.667 28.333 -82 51 -82c34 0 65.667 24 95 72c26.667 20 59.667 55 99 105h44l7 -7v-37c0 -33.333 -14.667 -57.333 -44 -72c-4 -18 -13 -27 -27 -27
c-18 -26 -50 -59 -96 -99l-68 -24h-31c-47.333 10.667 -71 26.667 -71 48c-10 5.33301 -22.667 29.333 -38 72c-9.33301 0 -18.333 18 -27 54v7h3l-6 143l3 31l-3 41l6 191l11 10l-4 41v17l4 27l-11 72v34l11 41c0 10 -3.66699 20 -11 30v18l7 40c0 18.667 -8 28 -24 28
c-36 -18 -92.667 -31.667 -170 -41c-25.333 6.66699 -38 19 -38 37l-3 24c-0 20 36.333 31.333 109 34c33.333 4.66699 64 14 92 28c14.667 0 25 2 31 6l-4 11l7 102c-6.66699 21.333 -10 40.666 -10 57.999v51l-3 102l13 181v24l-3 20c7.33301 84 14 126 20 126z" />
    <glyph glyph-name="u" unicode="u" horiz-adv-x="1164" 
d="M76 1206c17.333 0 30.999 -6.66992 40.999 -20.0029v-28l-17 -38c0 -30 -3.66699 -62 -11 -96v-13l-7 -93l4 -134l-4 -38l4 -3v-4l-4 -31v-6l7 -28v-10l-10 -48l3 -18v-89c20 -99.333 46.333 -168 79 -206l38 -27l17 3h38c32 6 58.333 21 79 45
c73.333 74.667 110 127.334 110 158.001c6 0 14 16 24 48c4.66699 4.66699 10.334 18.334 17.001 41.001l10 10v31l24 55c6 0 10.667 13.667 14 41c23.333 38.667 35 69.667 35 93c7.33301 0 11.666 16 12.999 48l-3 21l3 3v4l-3 3l3 28l-3 30l20 31l-3 11
c0 32.667 7 84 21 154c0 17.333 5.66699 33.333 17 48c0 6.66699 4.33301 12.334 13 17.001h7c34.667 -6 52 -25.333 52 -58c-9.33301 -14 -14 -24.333 -14 -31v-21l-10 -85v-38l-14 -76l7 -27l-3 -28l3 -30l-10 -38v-21l10 -65c-11.333 -21.333 -17 -37.333 -17 -48l10 -45
l-7 -41c7.33301 -8.66699 14.333 -37.334 21 -86.001l7 -7v-44c16 -14.667 24 -30.667 24 -48c5.33301 -1.33301 11 -10.666 17 -27.999c6 0 17.333 -12.667 34 -38h28c26.667 14.667 65.334 49 116.001 103c52.667 39.333 86 59 100 59c14 -5.33301 21 -10 21 -14v-14
c-34 -33.333 -65 -70 -93 -110c-8.66699 0 -14.334 -8 -17.001 -24c-26 -30.667 -45.667 -47.667 -59 -51c-37.333 -27.333 -69.333 -41 -96 -41h-3c-20 0 -56.667 32 -110 96c0 9.33301 -8 26.333 -24 51l-28 59l4 13c0 20.667 -7 47 -21 79l-3 31l3 65h-10l-21 -48
c0 -19.333 -11.333 -53.666 -34 -102.999c0 -20.667 -10.333 -42.334 -31 -65.001c-3.33301 -15.333 -21.666 -39.333 -54.999 -72c0 -7.33301 -12.667 -21 -38 -41c-54 -46 -104.333 -69 -151 -69h-65c-24.667 0 -51 18.333 -79 55c-9.33301 0 -17.333 12.667 -24 38
c-5.33301 0 -20.333 28.667 -45 86c-11.333 0 -20.333 66.333 -27 199l3 45v24l-3 58l7 89l-4 117l7 93l-3 3l3 17v14c8 112 30 168 66 168z" />
    <glyph glyph-name="v" unicode="v" horiz-adv-x="972" 
d="M14 1203l17 -0.000976562c29.333 0 49 -26.667 59 -80c16 -41.333 24 -85.333 24 -132c14 -12 27 -43 39 -93v-28c18 -24.667 30.667 -51.334 38 -80.001c7.33301 -9.33301 20 -42.666 38 -99.999c5.33301 -5.33301 17 -38 35 -98c18 -22 27 -48.333 27 -79
c11.333 0 25.333 -33.667 42 -101c6.66699 -1.33301 14.667 -16.333 24 -45h11c5.33301 0 11 14 17 42c14.667 18.667 26.334 41.667 35.001 69c20.667 24.667 31 47.667 31 69c17.333 21.333 34.666 59.666 51.999 114.999c6.66699 0 18.334 23 35.001 69
c14.667 15.333 26 45.333 34 90c18 40.667 29.667 88.334 35 143.001c8 0 13.667 16 17 48c4.66699 0 10.667 14 18 42c8.66699 0 15.667 15 21 45l13 35c7.33301 0 14.333 15 21 45l25 21h34l28 -28v-14c0 -15.333 -12.667 -38.333 -38 -69
c-9.33301 -29.333 -24.333 -62 -45 -98c0 -30.667 -10.333 -71 -31 -121c0 -20 -9.33301 -51.333 -28 -94c0 -25.333 -10.333 -51.666 -31 -78.999c-4 -23.333 -18 -53.666 -42 -90.999c0 -22 -16.333 -60 -49 -114c0 -10.667 -6.66699 -17.667 -20 -21
c0 -16.667 -7 -41 -21 -73c-5.33301 -4.66699 -20.333 -40.334 -45 -107.001c0 -38 -14 -62.333 -42 -73c0 -6.66699 -4.66699 -12.667 -14 -18h-3c-37.333 10.667 -56 31.667 -56 63c0 8.66699 -15 40 -45 94c-18.667 18.667 -28 42.667 -28 72
c-41.333 90 -70 160.667 -86 212c-14 20 -21 42 -21 66c-18.667 34 -31.334 66.333 -38.001 97c-4.66699 16 -13 31 -25 45l-62 253c-4 8 -8.66699 38.333 -14 91z" />
    <glyph glyph-name="w" unicode="w" horiz-adv-x="1402" 
d="M1241 1181l10.999 -15.9971c-2.66699 -30 -17.667 -44 -45 -42h-7l-1 -18c-26.667 -22.667 -40.334 -38 -41.001 -46c10 -12.667 15.333 -43 16 -91c4 -0.666992 8.33301 -11 13 -31l-5 -19l10 -176l-6 -90c-2.66699 -44 -12.667 -102 -30 -174l-4 -49
c-12 -11.333 -29.333 -46.333 -52 -105c-41.333 -43.333 -84.666 -75.333 -129.999 -96c-14.667 0 -39 -9.33301 -73 -28l-27 -2c-25.333 2 -48.333 11 -69 27c-72.667 32.667 -108.334 57.667 -107.001 75c-24 26 -42.333 54.667 -55 86c-4 0 -14.667 25.667 -32 77
c-7.33301 0.666992 -14.333 26 -21 76c-12.667 10.667 -20 31.334 -22 62.001c-9.33301 0.666992 -14 22.334 -14 65.001c-9.33301 2.66699 -14.333 23 -15 61h-7c-16 -38.667 -30.667 -89 -44 -151c-18 -42.667 -31.333 -89 -40 -139
c-1.33301 -17.333 -31 -70.333 -89 -159c-17.333 -24 -38.666 -40 -63.999 -48c0 -6.66699 -14 -10.667 -42 -12c-0.666992 -8.66699 -21 -15 -61 -19l-26 2c-54 4 -90.333 20.333 -109 49l-14 23c0.666992 9.33301 -5.33301 30 -18 62l-13 79c2.66699 36.667 0 92 -8 166
v48l5 23l2 22l-6 30l6 34l1 63l11 45l9 134l41 170l-2 26c16 21.333 29.333 31.666 40 30.999c20 -1.33301 34 -16 42 -44l-9 -30l2 -15c-3.33301 -48 -16.333 -110.667 -39 -188l3 -19l-8 -56v-4l2 -15l-11 -55l-2 -146l-7 -45c12 -0.666992 18 -58.334 18 -173.001
c6.66699 -10.667 9 -32.334 7 -65.001l-4 -3l-1 -4c15.333 -38.667 38 -59 68 -61h3c78.667 10 119 33.333 121 70c7.33301 0 21.666 24.333 42.999 73c26.667 25.333 41.334 58 44.001 98c9.33301 -0.666992 17.666 30 24.999 92c6.66699 7.33301 17.334 34 32.001 80
c4.66699 -0.666992 10 21.333 16 66c5.33301 0 16 32 32 96c6 -0.666992 13 26.333 21 81c19.333 33.333 38 49.333 56 48c32 -8.66699 45 -53.334 39 -134.001c11.333 -20.667 15.666 -52 12.999 -94l10 -65c9.33301 -0.666992 15.333 -22.334 18 -65.001l31 -99
c10.667 -0.666992 15.667 -17.334 15 -50.001c6 -0.666992 19 -31.667 39 -93c6 0 24.667 -20 56 -60l58 -26c10.667 -0.666992 17.667 -5 21 -13c32.667 8.66699 66.334 21.334 101.001 38.001c38.667 28 58.334 44.333 59.001 49c22 30.667 33.667 56 35 76l16 10l2 26
l27 126l10 138l-8 169l2 15l-16 42l-10 76c1.33301 24 -3 50.667 -13 80c22.667 18 37 27 43 27l33 -6c16 21.333 49 30.333 99 27z" />
    <glyph glyph-name="x" unicode="x" horiz-adv-x="1274" 
d="M189 1189l4 1.00098l38 -12c73.333 -8.66699 119 -22.334 137 -41.001c34 2.66699 52.667 -18 56 -62c4 0.666992 15.667 -20.666 35 -63.999l-3 -4v-3l37 -83v-7h4c14.667 1.33301 24.667 14.666 30 39.999l63 87l82 84c5.33301 0.666992 17 11.667 35 33l61 27
c7.33301 0.666992 16.666 6.33398 27.999 17.001l55 4l32 -27l2 -25l-10 -12h-45l-70 -47c-3.33301 -8 -29.666 -33.667 -78.999 -77c-6 -20.667 -25 -44.334 -57 -71.001c-34.667 -58.667 -51.334 -94.667 -50.001 -108c-25.333 -60 -35.333 -122.667 -30 -188
c-6.66699 -2.66699 -9.66699 -10.334 -9 -23.001l4 -44c15.333 -8.66699 24.666 -35 27.999 -79c6 0.666992 15 -17 27 -53c27.333 -42 61.333 -80 102 -114c15.333 -28.667 56 -40.334 122 -35.001l65 9c0 4 16.333 16.667 49 38c8.66699 11.333 23 19.666 43 24.999
c62 72 107 109 135 111l29 7c12.667 0.666992 23 -4.66602 31 -15.999l1 -12c0 -4 -16 -17.667 -48 -41c-20 -48 -39 -73 -57 -75c-2 -13.333 -18 -28 -48 -44c-21.333 -23.333 -43.666 -39 -66.999 -47c0.666992 -11.333 -31.666 -26 -96.999 -44
c-100.667 -2 -151.667 3.66699 -153 17l-42 18c-8.66699 -0.666992 -29 18.666 -61 57.999c-47.333 40 -72.333 77.667 -75 113c-9.33301 -0.666992 -25.333 29 -48 89l-21 28l-4 -1c-17.333 -51.333 -33.333 -81 -48 -89c0.666992 -13.333 -11.666 -30.333 -36.999 -51
c1.33301 -16 -14 -40.667 -46 -74c2 -20 -9.33301 -31 -34 -33c-22.667 -30.667 -66.334 -57.667 -131.001 -81l-33 -3c-12 10.667 -38.667 22.334 -80 35.001l-24 20l-1 7c-1.33301 18 7 38.667 25 62h7c9.33301 0.666992 28.666 -8.66602 57.999 -27.999
c7.33301 0 16.333 -4.33301 27 -13l15 1c16 24 37 40.667 63 50l71 76c39.333 55.333 61.666 98 66.999 128c22.667 24.667 33.667 44 33 58c8 0.666992 21.333 46.334 40 137.001v48l-2 29l7 45l-24 65c-6 -0.666992 -24 40 -54 122
c-13.333 21.333 -26.666 31.333 -39.999 30c-33.333 12 -68.333 19 -105 21l-47 -11c-9.33301 -0.666992 -25 9 -47 29l-1 8c-1.33301 19.333 10.334 30 35.001 32c-0.666992 6 11 12 35 18c0.666992 10 4 15 10 15z" />
    <glyph glyph-name="y" unicode="y" horiz-adv-x="961" 
d="M663 1217h23.9971c27.333 0 41 -20.667 41 -62c-2 -160.667 -6.33301 -250.667 -13 -270l3 -13l-14 -125c-7.33301 0 -14 -36.667 -20 -110c-4.66699 0 -8.33398 -7 -11.001 -21l4 -21l-4 -62v-3l-17 -45v-193l-17 -135l10 -41l-3 -11l3 -34v-45l4 -38l-11 -27v-14l4 -14
l-7 -34l3 -21c0 -56.667 -18.333 -129.334 -55 -218.001c-21.333 -32 -47.666 -52.667 -78.999 -62l-52 -27l-93 10l-52 -4c-17.333 0 -54.333 9.33301 -111 28c-18 0 -41 12.667 -69 38c-10.667 0 -34.667 23 -72 69c-6 0 -15.333 17.333 -28 52
c-6.66699 1.33301 -10 10.666 -10 27.999v65c0 16 8 24 24 24h7c18 0 27 -20.667 27 -62c0 -14 9.33301 -27.667 28 -41c2.66699 -12 18.667 -31.667 48 -59c16 -19.333 47.333 -39 94 -59l82 -10h107c47.333 24.667 78.666 55.667 93.999 93
c11.333 35.333 17 75.666 17 120.999c6.66699 0 11.334 24.333 14.001 73l-4 17l7 27v4l-3 20l7 24l-4 18v86l-3 86l14 97l-7 21l13 58l-3 4v20l3 38c-3.33301 9.33301 -6.66602 14 -9.99902 14c-12 -8 -28 -35.667 -48 -83c-57.333 -59.333 -97.666 -89 -120.999 -89
c0 -8 -16 -14 -48 -18c0 -6 -32.333 -12.667 -97 -20c-45.333 0 -93.666 20.667 -144.999 62c0 7.33301 -8 17.666 -24 30.999l-14 41c0 8 -7 20.667 -21 38c-6.66699 26 -12.334 71 -17.001 135c-14 0 -25.667 96.667 -35 290l4 21l-7 38l7 124l-4 14l4 62v41
c2.66699 20.667 13 31 31 31c32 0 48 -23 48 -69l-3 -10l3 -14l-7 -79l4 -35l-4 -128c9.33301 -53.333 16.333 -132.666 21 -237.999c10 0 19.333 -42.667 28 -128c0 -19.333 8 -37.666 24 -54.999c0 -24 23 -52.667 69 -86l45 -10c0 6.66699 12.667 10 38 10
c6.66699 6 26.334 13 59.001 21c0 6.66699 16 13.334 48 20.001c72.667 82 119.667 153.333 141 214c8.66699 0 19 25.333 31 76l18 24c11.333 48.667 17 83.334 17 104.001c4 0 7.33301 5.66699 10 17l-3 21v3l10 32l-3 10l7 97l-4 27l11 21v76l3 31l-3 3v4
c4.66699 10 7 25 7 45v14z" />
    <glyph glyph-name="z" unicode="z" horiz-adv-x="1024" 
d="M671 1191c18.667 0 36.3301 -14.6631 52.9971 -43.9961l4 -13l-27 -26l-43 -60l-67 -83c0 -8.66699 -17.667 -34.334 -53 -77.001c-28.667 -44.667 -49.667 -72.334 -63 -83.001c-3.33301 -24 -36.666 -71.667 -99.999 -143c-27.333 -58 -50.666 -93.333 -69.999 -106
c-8 -36 -18 -54 -30 -54c-18 -37.333 -49 -80.333 -93 -129l-40 -60v-14l7 -6l27 3l83 -7l23 4l37 -4c18.667 9.33301 51.667 15 99 17c8.66699 -4.66699 21 -7 37 -7h47l53 17l113 3c2.66699 9.33301 12.667 14 30 14h10l30 -4c7.33301 4.66699 27 8 59 10
c24.667 0 37 -17.667 37 -53c0 -14.667 -15.333 -28 -46 -40h-4l-36 7h-7c-22 -6 -75.333 -12.667 -160 -20l-30 3l-49 -26c-17.333 0 -36.333 5.33301 -57 16l-23 -3l-27 7l-76 -20h-177c-52.667 0 -84.667 -3.33301 -96 -10c-5.33301 0 -15.333 8.66699 -30 26v44
c33.333 52.667 52.333 79 57 79c5.33301 4 10.666 14 15.999 30c20.667 32 46.334 65.333 77.001 100l103 150l83 126c20 10 32 24.333 36 43l97 143c20.667 25.333 35 47.666 43 66.999c20 15.333 30 30.666 30 45.999l27 27l-20 7h-24l-13 -4l-3 4h-4l-9 -4
c-13.333 1.33301 -23.333 4.66602 -30 9.99902l-17 -10h-3l-24 4l-23 -4l-37 4l-99 -7l-14 3l-39 -3c-104.667 1.33301 -157 9 -157 23c-26.667 16 -42 29.333 -46 40v13c1.33301 6.66699 9 12.334 23 17.001c31.333 -8.66699 61.333 -13 90 -13h176l70 10
c44.667 0 72.334 -3.33301 83.001 -10c20 10.667 53.333 16 100 16h6v-3l17 3h47z" />
    <glyph glyph-name="braceleft" unicode="{" horiz-adv-x="600" 
d="M332 1861l18.002 -0.00195312c31.333 -6 47 -19 47 -39c0 -15.333 -26.667 -33.333 -80 -54c-30.667 -16 -55.667 -40 -75 -72c-29.333 -58 -44 -94 -44 -108v-57l3 -245l13 -54v-5c-8.66699 -61.333 -21.667 -100 -39 -116c-26 -23.333 -39 -38.666 -39 -45.999
c0 -4 12.333 -19.333 37 -46c16.667 -34.667 25 -76 25 -124v-26l-2 -38l2 -29l-10 -41v-20l3 -11l-3 -2l3 -13v-8l-18 -118v-31l2 -16l-10 -49l8 -61v-65c8 -60 22.333 -90 43 -90l44 21h10c29.333 -5.33301 44 -19.333 44 -42c0 -28 -34.333 -46.667 -103 -56h-10
c-40.667 0 -72.334 41 -95.001 123l-11 62v178l11 64v31l12 95l3 88v82c0 44 -13.667 72.333 -41 85h-8l-26 -5h-10c-16 0 -28 11.333 -36 34c0 20 19 42.333 57 67c48 32.667 72 63.334 72 92.001c3.33301 0 5 6 5 18v65l-13 72v134l-3 85c0 30.667 14.667 71.667 44 123
c0.666992 26.667 24 60.334 70 101.001c19.333 19.333 52.666 41.666 99.999 66.999z" />
    <glyph glyph-name="bar" unicode="|" horiz-adv-x="324" 
d="M53 1867c28.667 -8 43 -27.333 43 -58l13 -91l-2 -24l2 -66v-30c10.667 -56 16 -93 16 -111v-6l-2 -66l2 -83v-45l-2 -128l2 -13l-5 -99l5 -21l-10 -67l8 -43l-3 -21l3 -80l-3 -45l5 -37v-173l6 -86v-16l-3 -64c5.33301 -14 8 -27.333 8 -40v-29
c0 -22 2.66699 -47.667 8 -77c-6.66699 -19.333 -23.667 -35.333 -51 -48h-5c-22 0 -38 24 -48 72l13 50v16l-2 78l2 16l-10 112v10l5 56l-11 213l3 48v3l-3 85h3l-3 3l3 13v123c0 56 4.33301 158 13 306c0 44 -4.33301 89.333 -13 136v16
c-8.66699 131.333 -15 203.333 -19 216c-14 21.333 -21 39 -21 53c-0 10 12.333 24 37 42h16z" />
    <glyph glyph-name="braceright" unicode="}" horiz-adv-x="600" 
d="M30 1846h31.999c26 0 58.333 -27.667 97 -83l25 -69l-2 -30l12 -102v-43l-10 -79l3 -3v-2l-28 -190c8 -32.667 14 -68.334 18 -107.001l40 -57c13.333 -13.333 24 -21.666 32 -24.999l12 3h20c21.333 0 38 -12.667 50 -38c0 -22.667 -18.333 -37.334 -55 -44.001
c-20 -15.333 -36.333 -41.333 -49 -78l-5 -67v-62c10 -72 15 -151.667 15 -239l-3 -3v-2l5 -20v-8l-2 -27c6.66699 -16.667 10 -41.667 10 -75l-10 -32l5 -22l-3 -3v-2l3 -8c-9.33301 -56.667 -17.666 -85 -24.999 -85c-12 -28 -44.333 -42 -97 -42l-38 -2
c-26.667 18.667 -40 35 -40 49v3c8 13.333 19.667 20 35 20l55 -3c24.667 11.333 37 26.333 37 45v102l-2 10l2 3v2l-2 65l2 77c0 31.333 -5 88.666 -15 171.999l-2 77c0 90.667 11.667 149.667 35 177c0 8 -19.333 33.667 -58 77c-18 28.667 -27 55.334 -27 80.001
c-6.66699 25.333 -10 60 -10 104v40c8.66699 64.667 18 115.334 28 152.001v3l-3 25l3 2v3l-3 2l5 47c0 128 -13.333 200.333 -40 217c-13.333 20.667 -37.333 35.667 -72 45l-10 10v12c0 14 10 23.333 30 28z" />
    <glyph glyph-name="asciitilde" unicode="~" horiz-adv-x="1104" 
d="M274 1082l31.9971 -0.000976562c34.667 0 86.334 -27 155.001 -81c8 0 28.333 -18.667 61 -56c20 -10 44.333 -27.333 73 -52l61 -26h15c41.333 0 74.333 9.66699 99 29c4.66699 0 17.334 17.333 38.001 52c1.33301 39.333 6.33301 64.666 15 75.999l-3 3v3
c0 4.66699 7.66699 13.334 23 26.001h15c6 -2 12.667 -11.667 20 -29l-3 -32l3 -18c-8.66699 -42.667 -18.334 -64 -29.001 -64c-5.33301 -34.667 -24.666 -62.667 -57.999 -84c-13.333 0 -34 -9 -62 -27l-23 -2h-38c-34.667 0 -62 8.66699 -82 26
c-18.667 0 -43.667 17.333 -75 52c0 4.66699 -12.667 10.667 -38 18c0 7.33301 -9.66699 16 -29 26c-10 19.333 -23.667 29 -41 29c0 14.667 -24.333 33.334 -73 56.001l-29 17l-9 -3l-18 3h-2c-6 0 -16 -5.66699 -30 -17c-17.333 0 -38.666 -10 -63.999 -30
c-9.33301 0 -17 -7.66699 -23 -23c-11.333 -4 -20 -14.667 -26 -32c-12 0 -24.667 -19.333 -38 -58l-12 -15l3 -29c-4 -13.333 -11.667 -20 -23 -20h-32c-6 0 -11 8.66699 -15 26v9c0 12 9.66699 35 29 69c0 28 10.667 47.667 32 59c14 20 29.667 32.667 47 38
c0 10 14.667 20.667 44 32c0 6 10.667 13.667 32 23c0 10 26 18.667 78 26z" />
    <glyph glyph-name="exclamdown" unicode="&#xa1;" horiz-adv-x="682" 
 />
    <glyph glyph-name="cent" unicode="&#xa2;" 
 />
    <glyph glyph-name="sterling" unicode="&#xa3;" 
 />
    <glyph glyph-name="currency" unicode="&#xa4;" 
 />
    <glyph glyph-name="yen" unicode="&#xa5;" 
 />
    <glyph glyph-name="brokenbar" unicode="&#xa6;" horiz-adv-x="532" 
 />
    <glyph glyph-name="section" unicode="&#xa7;" 
 />
    <glyph glyph-name="dieresis" unicode="&#xa8;" horiz-adv-x="682" 
 />
    <glyph glyph-name="copyright" unicode="&#xa9;" horiz-adv-x="1509" 
 />
    <glyph glyph-name="ordfeminine" unicode="&#xaa;" horiz-adv-x="758" 
 />
    <glyph glyph-name="guillemotleft" unicode="&#xab;" 
 />
    <glyph glyph-name="logicalnot" unicode="&#xac;" horiz-adv-x="1196" 
 />
    <glyph glyph-name="registered" unicode="&#xae;" horiz-adv-x="1509" 
 />
    <glyph glyph-name="macron" unicode="&#xaf;" horiz-adv-x="1131" 
 />
    <glyph glyph-name="degree" unicode="&#xb0;" horiz-adv-x="819" 
 />
    <glyph glyph-name="plusminus" unicode="&#xb1;" horiz-adv-x="1124" 
 />
    <glyph glyph-name="uni00B2" unicode="&#xb2;" horiz-adv-x="682" 
 />
    <glyph glyph-name="uni00B3" unicode="&#xb3;" horiz-adv-x="682" 
 />
    <glyph glyph-name="acute" unicode="&#xb4;" horiz-adv-x="682" 
 />
    <glyph glyph-name="mu" unicode="&#xb5;" horiz-adv-x="1180" 
 />
    <glyph glyph-name="paragraph" unicode="&#xb6;" horiz-adv-x="1100" 
 />
    <glyph glyph-name="periodcentered" unicode="&#xb7;" horiz-adv-x="569" 
 />
    <glyph glyph-name="periodcentered" unicode="&#x2219;" horiz-adv-x="569" 
 />
    <glyph glyph-name="cedilla" unicode="&#xb8;" horiz-adv-x="682" 
 />
    <glyph glyph-name="uni00B9" unicode="&#xb9;" horiz-adv-x="682" 
 />
    <glyph glyph-name="ordmasculine" unicode="&#xba;" horiz-adv-x="748" 
 />
    <glyph glyph-name="guillemotright" unicode="&#xbb;" 
 />
    <glyph glyph-name="onequarter" unicode="&#xbc;" horiz-adv-x="1708" 
 />
    <glyph glyph-name="onehalf" unicode="&#xbd;" horiz-adv-x="1708" 
 />
    <glyph glyph-name="threequarters" unicode="&#xbe;" horiz-adv-x="1708" 
 />
    <glyph glyph-name="questiondown" unicode="&#xbf;" horiz-adv-x="1251" 
 />
    <glyph glyph-name="Agrave" unicode="&#xc0;" horiz-adv-x="1366" 
 />
    <glyph glyph-name="Aacute" unicode="&#xc1;" horiz-adv-x="1366" 
 />
    <glyph glyph-name="Acircumflex" unicode="&#xc2;" horiz-adv-x="1366" 
 />
    <glyph glyph-name="Atilde" unicode="&#xc3;" horiz-adv-x="1366" 
 />
    <glyph glyph-name="Adieresis" unicode="&#xc4;" horiz-adv-x="1366" 
 />
    <glyph glyph-name="Aring" unicode="&#xc5;" horiz-adv-x="1366" 
 />
    <glyph glyph-name="AE" unicode="&#xc6;" horiz-adv-x="2048" 
 />
    <glyph glyph-name="Ccedilla" unicode="&#xc7;" horiz-adv-x="1479" 
 />
    <glyph glyph-name="Egrave" unicode="&#xc8;" horiz-adv-x="1366" 
 />
    <glyph glyph-name="Eacute" unicode="&#xc9;" horiz-adv-x="1366" 
 />
    <glyph glyph-name="Ecircumflex" unicode="&#xca;" horiz-adv-x="1366" 
 />
    <glyph glyph-name="Edieresis" unicode="&#xcb;" horiz-adv-x="1366" 
 />
    <glyph glyph-name="Igrave" unicode="&#xcc;" horiz-adv-x="569" 
 />
    <glyph glyph-name="Iacute" unicode="&#xcd;" horiz-adv-x="569" 
 />
    <glyph glyph-name="Icircumflex" unicode="&#xce;" horiz-adv-x="569" 
 />
    <glyph glyph-name="Idieresis" unicode="&#xcf;" horiz-adv-x="569" 
 />
    <glyph glyph-name="Eth" unicode="&#xd0;" horiz-adv-x="1479" 
 />
    <glyph glyph-name="Ntilde" unicode="&#xd1;" horiz-adv-x="1479" 
 />
    <glyph glyph-name="Ograve" unicode="&#xd2;" horiz-adv-x="1593" 
 />
    <glyph glyph-name="Oacute" unicode="&#xd3;" horiz-adv-x="1593" 
 />
    <glyph glyph-name="Ocircumflex" unicode="&#xd4;" horiz-adv-x="1593" 
 />
    <glyph glyph-name="Otilde" unicode="&#xd5;" horiz-adv-x="1593" 
 />
    <glyph glyph-name="Odieresis" unicode="&#xd6;" horiz-adv-x="1593" 
 />
    <glyph glyph-name="multiply" unicode="&#xd7;" horiz-adv-x="1196" 
 />
    <glyph glyph-name="Oslash" unicode="&#xd8;" horiz-adv-x="1593" 
 />
    <glyph glyph-name="Ugrave" unicode="&#xd9;" horiz-adv-x="1479" 
 />
    <glyph glyph-name="Uacute" unicode="&#xda;" horiz-adv-x="1479" 
 />
    <glyph glyph-name="Ucircumflex" unicode="&#xdb;" horiz-adv-x="1479" 
 />
    <glyph glyph-name="Udieresis" unicode="&#xdc;" horiz-adv-x="1479" 
 />
    <glyph glyph-name="Yacute" unicode="&#xdd;" horiz-adv-x="1366" 
 />
    <glyph glyph-name="Thorn" unicode="&#xde;" horiz-adv-x="1366" 
 />
    <glyph glyph-name="germandbls" unicode="&#xdf;" horiz-adv-x="1251" 
 />
    <glyph glyph-name="agrave" unicode="&#xe0;" 
 />
    <glyph glyph-name="aacute" unicode="&#xe1;" 
 />
    <glyph glyph-name="acircumflex" unicode="&#xe2;" 
 />
    <glyph glyph-name="atilde" unicode="&#xe3;" 
 />
    <glyph glyph-name="adieresis" unicode="&#xe4;" 
 />
    <glyph glyph-name="aring" unicode="&#xe5;" 
 />
    <glyph glyph-name="ae" unicode="&#xe6;" horiz-adv-x="1821" 
 />
    <glyph glyph-name="ccedilla" unicode="&#xe7;" horiz-adv-x="1024" 
 />
    <glyph glyph-name="egrave" unicode="&#xe8;" 
 />
    <glyph glyph-name="eacute" unicode="&#xe9;" 
 />
    <glyph glyph-name="ecircumflex" unicode="&#xea;" 
 />
    <glyph glyph-name="edieresis" unicode="&#xeb;" 
 />
    <glyph glyph-name="igrave" unicode="&#xec;" horiz-adv-x="569" 
 />
    <glyph glyph-name="iacute" unicode="&#xed;" horiz-adv-x="569" 
 />
    <glyph glyph-name="icircumflex" unicode="&#xee;" horiz-adv-x="569" 
 />
    <glyph glyph-name="idieresis" unicode="&#xef;" horiz-adv-x="569" 
 />
    <glyph glyph-name="eth" unicode="&#xf0;" 
 />
    <glyph glyph-name="ntilde" unicode="&#xf1;" 
 />
    <glyph glyph-name="ograve" unicode="&#xf2;" 
 />
    <glyph glyph-name="oacute" unicode="&#xf3;" 
 />
    <glyph glyph-name="ocircumflex" unicode="&#xf4;" 
 />
    <glyph glyph-name="otilde" unicode="&#xf5;" 
 />
    <glyph glyph-name="odieresis" unicode="&#xf6;" 
 />
    <glyph glyph-name="divide" unicode="&#xf7;" horiz-adv-x="1124" 
 />
    <glyph glyph-name="oslash" unicode="&#xf8;" horiz-adv-x="1251" 
 />
    <glyph glyph-name="ugrave" unicode="&#xf9;" 
 />
    <glyph glyph-name="uacute" unicode="&#xfa;" 
 />
    <glyph glyph-name="ucircumflex" unicode="&#xfb;" 
 />
    <glyph glyph-name="udieresis" unicode="&#xfc;" 
 />
    <glyph glyph-name="yacute" unicode="&#xfd;" horiz-adv-x="1024" 
 />
    <glyph glyph-name="thorn" unicode="&#xfe;" 
 />
    <glyph glyph-name="ydieresis" unicode="&#xff;" horiz-adv-x="1024" 
 />
    <glyph glyph-name="Amacron" unicode="&#x100;" horiz-adv-x="1366" 
 />
    <glyph glyph-name="amacron" unicode="&#x101;" 
 />
    <glyph glyph-name="Abreve" unicode="&#x102;" horiz-adv-x="1366" 
 />
    <glyph glyph-name="abreve" unicode="&#x103;" 
 />
    <glyph glyph-name="Aogonek" unicode="&#x104;" horiz-adv-x="1366" 
 />
    <glyph glyph-name="aogonek" unicode="&#x105;" 
 />
    <glyph glyph-name="Cacute" unicode="&#x106;" horiz-adv-x="1479" 
 />
    <glyph glyph-name="cacute" unicode="&#x107;" horiz-adv-x="1024" 
 />
    <glyph glyph-name="Ccircumflex" unicode="&#x108;" horiz-adv-x="1479" 
 />
    <glyph glyph-name="ccircumflex" unicode="&#x109;" horiz-adv-x="1024" 
 />
    <glyph glyph-name="Cdotaccent" unicode="&#x10a;" horiz-adv-x="1479" 
 />
    <glyph glyph-name="cdotaccent" unicode="&#x10b;" horiz-adv-x="1024" 
 />
    <glyph glyph-name="Ccaron" unicode="&#x10c;" horiz-adv-x="1479" 
 />
    <glyph glyph-name="ccaron" unicode="&#x10d;" horiz-adv-x="1024" 
 />
    <glyph glyph-name="Dcaron" unicode="&#x10e;" horiz-adv-x="1479" 
 />
    <glyph glyph-name="dcaron" unicode="&#x10f;" horiz-adv-x="1259" 
 />
    <glyph glyph-name="Dcroat" unicode="&#x110;" horiz-adv-x="1479" 
 />
    <glyph glyph-name="dcroat" unicode="&#x111;" 
 />
    <glyph glyph-name="Emacron" unicode="&#x112;" horiz-adv-x="1366" 
 />
    <glyph glyph-name="emacron" unicode="&#x113;" 
 />
    <glyph glyph-name="Ebreve" unicode="&#x114;" horiz-adv-x="1366" 
 />
    <glyph glyph-name="ebreve" unicode="&#x115;" 
 />
    <glyph glyph-name="Edotaccent" unicode="&#x116;" horiz-adv-x="1366" 
 />
    <glyph glyph-name="edotaccent" unicode="&#x117;" 
 />
    <glyph glyph-name="Eogonek" unicode="&#x118;" horiz-adv-x="1366" 
 />
    <glyph glyph-name="eogonek" unicode="&#x119;" 
 />
    <glyph glyph-name="Ecaron" unicode="&#x11a;" horiz-adv-x="1366" 
 />
    <glyph glyph-name="ecaron" unicode="&#x11b;" 
 />
    <glyph glyph-name="Gcircumflex" unicode="&#x11c;" horiz-adv-x="1593" 
 />
    <glyph glyph-name="gcircumflex" unicode="&#x11d;" 
 />
    <glyph glyph-name="Gbreve" unicode="&#x11e;" horiz-adv-x="1593" 
 />
    <glyph glyph-name="gbreve" unicode="&#x11f;" 
 />
    <glyph glyph-name="Gdotaccent" unicode="&#x120;" horiz-adv-x="1593" 
 />
    <glyph glyph-name="gdotaccent" unicode="&#x121;" 
 />
    <glyph glyph-name="Gcommaaccent" unicode="&#x122;" horiz-adv-x="1593" 
 />
    <glyph glyph-name="gcommaaccent" unicode="&#x123;" 
 />
    <glyph glyph-name="Hcircumflex" unicode="&#x124;" horiz-adv-x="1479" 
 />
    <glyph glyph-name="hcircumflex" unicode="&#x125;" 
 />
    <glyph glyph-name="Hbar" unicode="&#x126;" horiz-adv-x="1479" 
 />
    <glyph glyph-name="hbar" unicode="&#x127;" 
 />
    <glyph glyph-name="Itilde" unicode="&#x128;" horiz-adv-x="569" 
 />
    <glyph glyph-name="itilde" unicode="&#x129;" horiz-adv-x="569" 
 />
    <glyph glyph-name="Imacron" unicode="&#x12a;" horiz-adv-x="569" 
 />
    <glyph glyph-name="imacron" unicode="&#x12b;" horiz-adv-x="569" 
 />
    <glyph glyph-name="Ibreve" unicode="&#x12c;" horiz-adv-x="569" 
 />
    <glyph glyph-name="ibreve" unicode="&#x12d;" horiz-adv-x="569" 
 />
    <glyph glyph-name="Iogonek" unicode="&#x12e;" horiz-adv-x="569" 
 />
    <glyph glyph-name="iogonek" unicode="&#x12f;" horiz-adv-x="455" 
 />
    <glyph glyph-name="Idotaccent" unicode="&#x130;" horiz-adv-x="569" 
 />
    <glyph glyph-name="dotlessi" unicode="&#x131;" horiz-adv-x="569" 
 />
    <glyph glyph-name="IJ" unicode="&#x132;" horiz-adv-x="1505" 
 />
    <glyph glyph-name="ij" unicode="&#x133;" horiz-adv-x="909" 
 />
    <glyph glyph-name="Jcircumflex" unicode="&#x134;" horiz-adv-x="1024" 
 />
    <glyph glyph-name="jcircumflex" unicode="&#x135;" horiz-adv-x="455" 
 />
    <glyph glyph-name="Kcommaaccent" unicode="&#x136;" horiz-adv-x="1366" 
 />
    <glyph glyph-name="kcommaaccent" unicode="&#x137;" horiz-adv-x="1024" 
 />
    <glyph glyph-name="kgreenlandic" unicode="&#x138;" horiz-adv-x="1024" 
 />
    <glyph glyph-name="Lacute" unicode="&#x139;" 
 />
    <glyph glyph-name="lacute" unicode="&#x13a;" horiz-adv-x="455" 
 />
    <glyph glyph-name="Lcommaaccent" unicode="&#x13b;" 
 />
    <glyph glyph-name="lcommaaccent" unicode="&#x13c;" horiz-adv-x="455" 
 />
    <glyph glyph-name="Lcaron" unicode="&#x13d;" 
 />
    <glyph glyph-name="lcaron" unicode="&#x13e;" horiz-adv-x="597" 
 />
    <glyph glyph-name="Ldot" unicode="&#x13f;" 
 />
    <glyph glyph-name="ldot" unicode="&#x140;" horiz-adv-x="684" 
 />
    <glyph glyph-name="Lslash" unicode="&#x141;" 
 />
    <glyph glyph-name="lslash" unicode="&#x142;" horiz-adv-x="455" 
 />
    <glyph glyph-name="Nacute" unicode="&#x143;" horiz-adv-x="1479" 
 />
    <glyph glyph-name="nacute" unicode="&#x144;" 
 />
    <glyph glyph-name="Ncommaaccent" unicode="&#x145;" horiz-adv-x="1479" 
 />
    <glyph glyph-name="ncommaaccent" unicode="&#x146;" 
 />
    <glyph glyph-name="Ncaron" unicode="&#x147;" horiz-adv-x="1479" 
 />
    <glyph glyph-name="ncaron" unicode="&#x148;" 
 />
    <glyph glyph-name="napostrophe" unicode="&#x149;" horiz-adv-x="1237" 
 />
    <glyph glyph-name="Eng" unicode="&#x14a;" horiz-adv-x="1481" 
 />
    <glyph glyph-name="eng" unicode="&#x14b;" 
 />
    <glyph glyph-name="Omacron" unicode="&#x14c;" horiz-adv-x="1593" 
 />
    <glyph glyph-name="omacron" unicode="&#x14d;" 
 />
    <glyph glyph-name="Obreve" unicode="&#x14e;" horiz-adv-x="1593" 
 />
    <glyph glyph-name="obreve" unicode="&#x14f;" 
 />
    <glyph glyph-name="Ohungarumlaut" unicode="&#x150;" horiz-adv-x="1593" 
 />
    <glyph glyph-name="ohungarumlaut" unicode="&#x151;" 
 />
    <glyph glyph-name="OE" unicode="&#x152;" horiz-adv-x="2048" 
 />
    <glyph glyph-name="oe" unicode="&#x153;" horiz-adv-x="1933" 
 />
    <glyph glyph-name="Racute" unicode="&#x154;" horiz-adv-x="1479" 
 />
    <glyph glyph-name="racute" unicode="&#x155;" horiz-adv-x="682" 
 />
    <glyph glyph-name="Rcommaaccent" unicode="&#x156;" horiz-adv-x="1479" 
 />
    <glyph glyph-name="rcommaaccent" unicode="&#x157;" horiz-adv-x="682" 
 />
    <glyph glyph-name="Rcaron" unicode="&#x158;" horiz-adv-x="1479" 
 />
    <glyph glyph-name="rcaron" unicode="&#x159;" horiz-adv-x="682" 
 />
    <glyph glyph-name="Sacute" unicode="&#x15a;" horiz-adv-x="1366" 
 />
    <glyph glyph-name="sacute" unicode="&#x15b;" horiz-adv-x="1024" 
 />
    <glyph glyph-name="Scircumflex" unicode="&#x15c;" horiz-adv-x="1366" 
 />
    <glyph glyph-name="scircumflex" unicode="&#x15d;" horiz-adv-x="1024" 
 />
    <glyph glyph-name="Scedilla" unicode="&#x15e;" horiz-adv-x="1366" 
 />
    <glyph glyph-name="scedilla" unicode="&#x15f;" horiz-adv-x="1024" 
 />
    <glyph glyph-name="Scaron" unicode="&#x160;" horiz-adv-x="1366" 
 />
    <glyph glyph-name="scaron" unicode="&#x161;" horiz-adv-x="1024" 
 />
    <glyph glyph-name="Tcommaaccent" unicode="&#x162;" horiz-adv-x="1251" 
 />
    <glyph glyph-name="tcommaaccent" unicode="&#x163;" horiz-adv-x="569" 
 />
    <glyph glyph-name="Tcaron" unicode="&#x164;" horiz-adv-x="1251" 
 />
    <glyph glyph-name="tcaron" unicode="&#x165;" horiz-adv-x="768" 
 />
    <glyph glyph-name="Tbar" unicode="&#x166;" horiz-adv-x="1251" 
 />
    <glyph glyph-name="tbar" unicode="&#x167;" horiz-adv-x="569" 
 />
    <glyph glyph-name="Utilde" unicode="&#x168;" horiz-adv-x="1479" 
 />
    <glyph glyph-name="utilde" unicode="&#x169;" 
 />
    <glyph glyph-name="Umacron" unicode="&#x16a;" horiz-adv-x="1479" 
 />
    <glyph glyph-name="umacron" unicode="&#x16b;" 
 />
    <glyph glyph-name="Ubreve" unicode="&#x16c;" horiz-adv-x="1479" 
 />
    <glyph glyph-name="ubreve" unicode="&#x16d;" 
 />
    <glyph glyph-name="Uring" unicode="&#x16e;" horiz-adv-x="1479" 
 />
    <glyph glyph-name="uring" unicode="&#x16f;" 
 />
    <glyph glyph-name="Uhungarumlaut" unicode="&#x170;" horiz-adv-x="1479" 
 />
    <glyph glyph-name="uhungarumlaut" unicode="&#x171;" 
 />
    <glyph glyph-name="Uogonek" unicode="&#x172;" horiz-adv-x="1479" 
 />
    <glyph glyph-name="uogonek" unicode="&#x173;" 
 />
    <glyph glyph-name="Wcircumflex" unicode="&#x174;" horiz-adv-x="1933" 
 />
    <glyph glyph-name="wcircumflex" unicode="&#x175;" horiz-adv-x="1479" 
 />
    <glyph glyph-name="Ycircumflex" unicode="&#x176;" horiz-adv-x="1366" 
 />
    <glyph glyph-name="ycircumflex" unicode="&#x177;" horiz-adv-x="1024" 
 />
    <glyph glyph-name="Ydieresis" unicode="&#x178;" horiz-adv-x="1366" 
 />
    <glyph glyph-name="Zacute" unicode="&#x179;" horiz-adv-x="1251" 
 />
    <glyph glyph-name="zacute" unicode="&#x17a;" horiz-adv-x="1024" 
 />
    <glyph glyph-name="Zdotaccent" unicode="&#x17b;" horiz-adv-x="1251" 
 />
    <glyph glyph-name="zdotaccent" unicode="&#x17c;" horiz-adv-x="1024" 
 />
    <glyph glyph-name="Zcaron" unicode="&#x17d;" horiz-adv-x="1251" 
 />
    <glyph glyph-name="zcaron" unicode="&#x17e;" horiz-adv-x="1024" 
 />
    <glyph glyph-name="longs" unicode="&#x17f;" horiz-adv-x="455" 
 />
    <glyph glyph-name="florin" unicode="&#x192;" 
 />
    <glyph glyph-name="Aringacute" unicode="&#x1fa;" horiz-adv-x="1366" 
 />
    <glyph glyph-name="aringacute" unicode="&#x1fb;" 
 />
    <glyph glyph-name="AEacute" unicode="&#x1fc;" horiz-adv-x="2048" 
 />
    <glyph glyph-name="aeacute" unicode="&#x1fd;" horiz-adv-x="1821" 
 />
    <glyph glyph-name="Oslashacute" unicode="&#x1fe;" horiz-adv-x="1593" 
 />
    <glyph glyph-name="oslashacute" unicode="&#x1ff;" horiz-adv-x="1251" 
 />
    <glyph glyph-name="circumflex" unicode="&#x2c6;" horiz-adv-x="682" 
 />
    <glyph glyph-name="caron" unicode="&#x2c7;" horiz-adv-x="682" 
 />
    <glyph glyph-name="uni02C9" unicode="&#x2c9;" horiz-adv-x="682" 
 />
    <glyph glyph-name="breve" unicode="&#x2d8;" horiz-adv-x="682" 
 />
    <glyph glyph-name="dotaccent" unicode="&#x2d9;" horiz-adv-x="682" 
 />
    <glyph glyph-name="ring" unicode="&#x2da;" horiz-adv-x="682" 
 />
    <glyph glyph-name="ogonek" unicode="&#x2db;" horiz-adv-x="682" 
 />
    <glyph glyph-name="tilde" unicode="&#x2dc;" horiz-adv-x="682" 
 />
    <glyph glyph-name="hungarumlaut" unicode="&#x2dd;" horiz-adv-x="682" 
 />
    <glyph glyph-name="tonos" unicode="&#x384;" horiz-adv-x="682" 
 />
    <glyph glyph-name="dieresistonos" unicode="&#x385;" horiz-adv-x="682" 
 />
    <glyph glyph-name="Alphatonos" unicode="&#x386;" horiz-adv-x="1367" 
 />
    <glyph glyph-name="anoteleia" unicode="&#x387;" horiz-adv-x="569" 
 />
    <glyph glyph-name="Epsilontonos" unicode="&#x388;" horiz-adv-x="1606" 
 />
    <glyph glyph-name="Etatonos" unicode="&#x389;" horiz-adv-x="1716" 
 />
    <glyph glyph-name="Iotatonos" unicode="&#x38a;" horiz-adv-x="786" 
 />
    <glyph glyph-name="Omicrontonos" unicode="&#x38c;" horiz-adv-x="1586" 
 />
    <glyph glyph-name="Upsilontonos" unicode="&#x38e;" horiz-adv-x="1752" 
 />
    <glyph glyph-name="Omegatonos" unicode="&#x38f;" horiz-adv-x="1541" 
 />
    <glyph glyph-name="iotadieresistonos" unicode="&#x390;" horiz-adv-x="455" 
 />
    <glyph glyph-name="Alpha" unicode="&#x391;" horiz-adv-x="1366" 
 />
    <glyph glyph-name="Beta" unicode="&#x392;" horiz-adv-x="1366" 
 />
    <glyph glyph-name="Gamma" unicode="&#x393;" horiz-adv-x="1128" 
 />
    <glyph glyph-name="uni0394" unicode="&#x394;" horiz-adv-x="1368" 
 />
    <glyph glyph-name="Epsilon" unicode="&#x395;" horiz-adv-x="1366" 
 />
    <glyph glyph-name="Zeta" unicode="&#x396;" horiz-adv-x="1251" 
 />
    <glyph glyph-name="Eta" unicode="&#x397;" horiz-adv-x="1479" 
 />
    <glyph glyph-name="Theta" unicode="&#x398;" horiz-adv-x="1593" 
 />
    <glyph glyph-name="Iota" unicode="&#x399;" horiz-adv-x="569" 
 />
    <glyph glyph-name="Kappa" unicode="&#x39a;" horiz-adv-x="1366" 
 />
    <glyph glyph-name="Lambda" unicode="&#x39b;" horiz-adv-x="1368" 
 />
    <glyph glyph-name="Mu" unicode="&#x39c;" horiz-adv-x="1706" 
 />
    <glyph glyph-name="Nu" unicode="&#x39d;" horiz-adv-x="1479" 
 />
    <glyph glyph-name="Xi" unicode="&#x39e;" horiz-adv-x="1331" 
 />
    <glyph glyph-name="Omicron" unicode="&#x39f;" horiz-adv-x="1593" 
 />
    <glyph glyph-name="Pi" unicode="&#x3a0;" horiz-adv-x="1479" 
 />
    <glyph glyph-name="Rho" unicode="&#x3a1;" horiz-adv-x="1366" 
 />
    <glyph glyph-name="Sigma" unicode="&#x3a3;" horiz-adv-x="1266" 
 />
    <glyph glyph-name="Tau" unicode="&#x3a4;" horiz-adv-x="1251" 
 />
    <glyph glyph-name="Upsilon" unicode="&#x3a5;" horiz-adv-x="1366" 
 />
    <glyph glyph-name="Phi" unicode="&#x3a6;" horiz-adv-x="1634" 
 />
    <glyph glyph-name="Chi" unicode="&#x3a7;" horiz-adv-x="1366" 
 />
    <glyph glyph-name="Psi" unicode="&#x3a8;" horiz-adv-x="1711" 
 />
    <glyph glyph-name="uni03A9" unicode="&#x3a9;" horiz-adv-x="1531" 
 />
    <glyph glyph-name="Iotadieresis" unicode="&#x3aa;" horiz-adv-x="569" 
 />
    <glyph glyph-name="Upsilondieresis" unicode="&#x3ab;" horiz-adv-x="1366" 
 />
    <glyph glyph-name="alphatonos" unicode="&#x3ac;" horiz-adv-x="1184" 
 />
    <glyph glyph-name="epsilontonos" unicode="&#x3ad;" horiz-adv-x="913" 
 />
    <glyph glyph-name="etatonos" unicode="&#x3ae;" 
 />
    <glyph glyph-name="iotatonos" unicode="&#x3af;" horiz-adv-x="455" 
 />
    <glyph glyph-name="upsilondieresistonos" unicode="&#x3b0;" horiz-adv-x="1120" 
 />
    <glyph glyph-name="alpha" unicode="&#x3b1;" horiz-adv-x="1184" 
 />
    <glyph glyph-name="beta" unicode="&#x3b2;" horiz-adv-x="1178" 
 />
    <glyph glyph-name="gamma" unicode="&#x3b3;" horiz-adv-x="1024" 
 />
    <glyph glyph-name="delta" unicode="&#x3b4;" horiz-adv-x="1140" 
 />
    <glyph glyph-name="epsilon" unicode="&#x3b5;" horiz-adv-x="913" 
 />
    <glyph glyph-name="zeta" unicode="&#x3b6;" horiz-adv-x="903" 
 />
    <glyph glyph-name="eta" unicode="&#x3b7;" 
 />
    <glyph glyph-name="theta" unicode="&#x3b8;" 
 />
    <glyph glyph-name="iota" unicode="&#x3b9;" horiz-adv-x="455" 
 />
    <glyph glyph-name="kappa" unicode="&#x3ba;" horiz-adv-x="1024" 
 />
    <glyph glyph-name="lambda" unicode="&#x3bb;" horiz-adv-x="1024" 
 />
    <glyph glyph-name="uni03BC" unicode="&#x3bc;" horiz-adv-x="1180" 
 />
    <glyph glyph-name="nu" unicode="&#x3bd;" horiz-adv-x="1024" 
 />
    <glyph glyph-name="xi" unicode="&#x3be;" horiz-adv-x="917" 
 />
    <glyph glyph-name="omicron" unicode="&#x3bf;" 
 />
    <glyph glyph-name="pi" unicode="&#x3c0;" horiz-adv-x="1413" 
 />
    <glyph glyph-name="rho" unicode="&#x3c1;" horiz-adv-x="1165" 
 />
    <glyph glyph-name="sigma1" unicode="&#x3c2;" horiz-adv-x="987" 
 />
    <glyph glyph-name="sigma" unicode="&#x3c3;" horiz-adv-x="1264" 
 />
    <glyph glyph-name="tau" unicode="&#x3c4;" horiz-adv-x="809" 
 />
    <glyph glyph-name="upsilon" unicode="&#x3c5;" horiz-adv-x="1120" 
 />
    <glyph glyph-name="phi" unicode="&#x3c6;" horiz-adv-x="1328" 
 />
    <glyph glyph-name="chi" unicode="&#x3c7;" horiz-adv-x="1075" 
 />
    <glyph glyph-name="psi" unicode="&#x3c8;" horiz-adv-x="1460" 
 />
    <glyph glyph-name="omega" unicode="&#x3c9;" horiz-adv-x="1599" 
 />
    <glyph glyph-name="iotadieresis" unicode="&#x3ca;" horiz-adv-x="455" 
 />
    <glyph glyph-name="upsilondieresis" unicode="&#x3cb;" horiz-adv-x="1120" 
 />
    <glyph glyph-name="omicrontonos" unicode="&#x3cc;" 
 />
    <glyph glyph-name="upsilontonos" unicode="&#x3cd;" horiz-adv-x="1120" 
 />
    <glyph glyph-name="omegatonos" unicode="&#x3ce;" horiz-adv-x="1599" 
 />
    <glyph glyph-name="afii10023" unicode="&#x401;" horiz-adv-x="1367" 
 />
    <glyph glyph-name="afii10051" unicode="&#x402;" horiz-adv-x="1771" 
 />
    <glyph glyph-name="afii10052" unicode="&#x403;" horiz-adv-x="1109" 
 />
    <glyph glyph-name="afii10053" unicode="&#x404;" horiz-adv-x="1472" 
 />
    <glyph glyph-name="afii10054" unicode="&#x405;" horiz-adv-x="1366" 
 />
    <glyph glyph-name="afii10055" unicode="&#x406;" horiz-adv-x="569" 
 />
    <glyph glyph-name="afii10056" unicode="&#x407;" horiz-adv-x="569" 
 />
    <glyph glyph-name="afii10057" unicode="&#x408;" horiz-adv-x="1024" 
 />
    <glyph glyph-name="afii10058" unicode="&#x409;" horiz-adv-x="2165" 
 />
    <glyph glyph-name="afii10059" unicode="&#x40a;" horiz-adv-x="2069" 
 />
    <glyph glyph-name="afii10060" unicode="&#x40b;" horiz-adv-x="1749" 
 />
    <glyph glyph-name="afii10061" unicode="&#x40c;" horiz-adv-x="1193" 
 />
    <glyph glyph-name="afii10062" unicode="&#x40e;" horiz-adv-x="1301" 
 />
    <glyph glyph-name="afii10145" unicode="&#x40f;" horiz-adv-x="1472" 
 />
    <glyph glyph-name="afii10017" unicode="&#x410;" horiz-adv-x="1366" 
 />
    <glyph glyph-name="afii10018" unicode="&#x411;" horiz-adv-x="1344" 
 />
    <glyph glyph-name="afii10019" unicode="&#x412;" horiz-adv-x="1366" 
 />
    <glyph glyph-name="afii10020" unicode="&#x413;" horiz-adv-x="1109" 
 />
    <glyph glyph-name="afii10021" unicode="&#x414;" horiz-adv-x="1387" 
 />
    <glyph glyph-name="afii10022" unicode="&#x415;" horiz-adv-x="1366" 
 />
    <glyph glyph-name="afii10024" unicode="&#x416;" horiz-adv-x="1891" 
 />
    <glyph glyph-name="afii10025" unicode="&#x417;" horiz-adv-x="1237" 
 />
    <glyph glyph-name="afii10026" unicode="&#x418;" horiz-adv-x="1472" 
 />
    <glyph glyph-name="afii10027" unicode="&#x419;" horiz-adv-x="1472" 
 />
    <glyph glyph-name="afii10028" unicode="&#x41a;" horiz-adv-x="1193" 
 />
    <glyph glyph-name="afii10029" unicode="&#x41b;" horiz-adv-x="1344" 
 />
    <glyph glyph-name="afii10030" unicode="&#x41c;" horiz-adv-x="1706" 
 />
    <glyph glyph-name="afii10031" unicode="&#x41d;" horiz-adv-x="1479" 
 />
    <glyph glyph-name="afii10032" unicode="&#x41e;" horiz-adv-x="1593" 
 />
    <glyph glyph-name="afii10033" unicode="&#x41f;" horiz-adv-x="1472" 
 />
    <glyph glyph-name="afii10034" unicode="&#x420;" horiz-adv-x="1366" 
 />
    <glyph glyph-name="afii10035" unicode="&#x421;" horiz-adv-x="1479" 
 />
    <glyph glyph-name="afii10036" unicode="&#x422;" horiz-adv-x="1251" 
 />
    <glyph glyph-name="afii10037" unicode="&#x423;" horiz-adv-x="1301" 
 />
    <glyph glyph-name="afii10038" unicode="&#x424;" horiz-adv-x="1557" 
 />
    <glyph glyph-name="afii10039" unicode="&#x425;" horiz-adv-x="1366" 
 />
    <glyph glyph-name="afii10040" unicode="&#x426;" horiz-adv-x="1515" 
 />
    <glyph glyph-name="afii10041" unicode="&#x427;" horiz-adv-x="1365" 
 />
    <glyph glyph-name="afii10042" unicode="&#x428;" horiz-adv-x="1877" 
 />
    <glyph glyph-name="afii10043" unicode="&#x429;" horiz-adv-x="1920" 
 />
    <glyph glyph-name="afii10044" unicode="&#x42a;" horiz-adv-x="1621" 
 />
    <glyph glyph-name="afii10045" unicode="&#x42b;" horiz-adv-x="1813" 
 />
    <glyph glyph-name="afii10046" unicode="&#x42c;" horiz-adv-x="1344" 
 />
    <glyph glyph-name="afii10047" unicode="&#x42d;" horiz-adv-x="1472" 
 />
    <glyph glyph-name="afii10048" unicode="&#x42e;" horiz-adv-x="2069" 
 />
    <glyph glyph-name="afii10049" unicode="&#x42f;" horiz-adv-x="1479" 
 />
    <glyph glyph-name="afii10065" unicode="&#x430;" 
 />
    <glyph glyph-name="afii10066" unicode="&#x431;" horiz-adv-x="1173" 
 />
    <glyph glyph-name="afii10067" unicode="&#x432;" horiz-adv-x="1088" 
 />
    <glyph glyph-name="afii10068" unicode="&#x433;" horiz-adv-x="747" 
 />
    <glyph glyph-name="afii10069" unicode="&#x434;" horiz-adv-x="1195" 
 />
    <glyph glyph-name="afii10070" unicode="&#x435;" 
 />
    <glyph glyph-name="afii10072" unicode="&#x436;" horiz-adv-x="1370" 
 />
    <glyph glyph-name="afii10073" unicode="&#x437;" horiz-adv-x="939" 
 />
    <glyph glyph-name="afii10074" unicode="&#x438;" horiz-adv-x="1144" 
 />
    <glyph glyph-name="afii10075" unicode="&#x439;" horiz-adv-x="1144" 
 />
    <glyph glyph-name="afii10076" unicode="&#x43a;" horiz-adv-x="896" 
 />
    <glyph glyph-name="afii10077" unicode="&#x43b;" horiz-adv-x="1195" 
 />
    <glyph glyph-name="afii10078" unicode="&#x43c;" horiz-adv-x="1408" 
 />
    <glyph glyph-name="afii10079" unicode="&#x43d;" horiz-adv-x="1131" 
 />
    <glyph glyph-name="afii10080" unicode="&#x43e;" 
 />
    <glyph glyph-name="afii10081" unicode="&#x43f;" horiz-adv-x="1109" 
 />
    <glyph glyph-name="afii10082" unicode="&#x440;" 
 />
    <glyph glyph-name="afii10083" unicode="&#x441;" horiz-adv-x="1024" 
 />
    <glyph glyph-name="afii10084" unicode="&#x442;" horiz-adv-x="938" 
 />
    <glyph glyph-name="afii10085" unicode="&#x443;" horiz-adv-x="1024" 
 />
    <glyph glyph-name="afii10086" unicode="&#x444;" horiz-adv-x="1685" 
 />
    <glyph glyph-name="afii10087" unicode="&#x445;" horiz-adv-x="1024" 
 />
    <glyph glyph-name="afii10088" unicode="&#x446;" horiz-adv-x="1173" 
 />
    <glyph glyph-name="afii10089" unicode="&#x447;" horiz-adv-x="1067" 
 />
    <glyph glyph-name="afii10090" unicode="&#x448;" horiz-adv-x="1643" 
 />
    <glyph glyph-name="afii10091" unicode="&#x449;" horiz-adv-x="1685" 
 />
    <glyph glyph-name="afii10092" unicode="&#x44a;" horiz-adv-x="1280" 
 />
    <glyph glyph-name="afii10093" unicode="&#x44b;" horiz-adv-x="1472" 
 />
    <glyph glyph-name="afii10094" unicode="&#x44c;" horiz-adv-x="1067" 
 />
    <glyph glyph-name="afii10095" unicode="&#x44d;" horiz-adv-x="1045" 
 />
    <glyph glyph-name="afii10096" unicode="&#x44e;" horiz-adv-x="1536" 
 />
    <glyph glyph-name="afii10097" unicode="&#x44f;" horiz-adv-x="1109" 
 />
    <glyph glyph-name="afii10071" unicode="&#x451;" 
 />
    <glyph glyph-name="afii10099" unicode="&#x452;" 
 />
    <glyph glyph-name="afii10100" unicode="&#x453;" horiz-adv-x="747" 
 />
    <glyph glyph-name="afii10101" unicode="&#x454;" horiz-adv-x="1045" 
 />
    <glyph glyph-name="afii10102" unicode="&#x455;" horiz-adv-x="1024" 
 />
    <glyph glyph-name="afii10103" unicode="&#x456;" horiz-adv-x="455" 
 />
    <glyph glyph-name="afii10104" unicode="&#x457;" horiz-adv-x="569" 
 />
    <glyph glyph-name="afii10105" unicode="&#x458;" horiz-adv-x="455" 
 />
    <glyph glyph-name="afii10106" unicode="&#x459;" horiz-adv-x="1856" 
 />
    <glyph glyph-name="afii10107" unicode="&#x45a;" horiz-adv-x="1664" 
 />
    <glyph glyph-name="afii10108" unicode="&#x45b;" 
 />
    <glyph glyph-name="afii10109" unicode="&#x45c;" horiz-adv-x="896" 
 />
    <glyph glyph-name="afii10110" unicode="&#x45e;" horiz-adv-x="1024" 
 />
    <glyph glyph-name="afii10193" unicode="&#x45f;" horiz-adv-x="1131" 
 />
    <glyph glyph-name="afii10050" unicode="&#x490;" horiz-adv-x="1001" 
 />
    <glyph glyph-name="afii10098" unicode="&#x491;" horiz-adv-x="842" 
 />
    <glyph glyph-name="Wgrave" unicode="&#x1e80;" horiz-adv-x="1933" 
 />
    <glyph glyph-name="wgrave" unicode="&#x1e81;" horiz-adv-x="1479" 
 />
    <glyph glyph-name="Wacute" unicode="&#x1e82;" horiz-adv-x="1933" 
 />
    <glyph glyph-name="wacute" unicode="&#x1e83;" horiz-adv-x="1479" 
 />
    <glyph glyph-name="Wdieresis" unicode="&#x1e84;" horiz-adv-x="1933" 
 />
    <glyph glyph-name="wdieresis" unicode="&#x1e85;" horiz-adv-x="1479" 
 />
    <glyph glyph-name="Ygrave" unicode="&#x1ef2;" horiz-adv-x="1366" 
 />
    <glyph glyph-name="ygrave" unicode="&#x1ef3;" horiz-adv-x="1024" 
 />
    <glyph glyph-name="endash" unicode="&#x2013;" 
 />
    <glyph glyph-name="emdash" unicode="&#x2014;" horiz-adv-x="2048" 
 />
    <glyph glyph-name="afii00208" unicode="&#x2015;" horiz-adv-x="2048" 
 />
    <glyph glyph-name="underscoredbl" unicode="&#x2017;" horiz-adv-x="1131" 
 />
    <glyph glyph-name="quoteleft" unicode="&#x2018;" horiz-adv-x="281" 
d="M106 1568c26.667 -15.333 44.333 -37 53 -65c0 -8.66699 7.33301 -26.667 22 -54v-25c-9.33301 -47.333 -36.333 -104.333 -81 -171c-35.333 -35.333 -60.333 -53 -75 -53c-14 0 -22.333 10.333 -25 31h3l-3 3v3l44 75c20.667 38.667 31 71 31 97l-22 87v22
c0 33.333 17.667 50 53 50z" />
    <glyph glyph-name="quoteright" unicode="&#x2019;" horiz-adv-x="281" 
d="M106 1568c26.667 -15.333 44.333 -37 53 -65c0 -8.66699 7.33301 -26.667 22 -54v-25c-9.33301 -47.333 -36.333 -104.333 -81 -171c-35.333 -35.333 -60.333 -53 -75 -53c-14 0 -22.333 10.333 -25 31h3l-3 3v3l44 75c20.667 38.667 31 71 31 97l-22 87v22
c0 33.333 17.667 50 53 50z" />
    <glyph glyph-name="quotesinglbase" unicode="&#x201a;" horiz-adv-x="455" 
 />
    <glyph glyph-name="quotereversed" unicode="&#x201b;" horiz-adv-x="455" 
 />
    <glyph glyph-name="quotedblleft" unicode="&#x201c;" horiz-adv-x="536" 
d="M280 1248c-27.333 10 -47.334 27.666 -60.001 52.999c-1.33301 7.33301 -10.666 22.333 -27.999 45l-4 23c3.33301 45.333 12.333 83.333 27 114c24.667 69.333 51.667 108.666 81 117.999c12.667 2 22 -6.33301 28 -25h-3l3 -3l1 -3l-29 -76
c-12.667 -39.333 -17 -70.666 -13 -93.999l34 -77l3 -20c5.33301 -31.333 -8 -49.666 -40 -54.999zM91.999 1240c-26.667 9.33301 -46.6689 26.668 -60.002 52.001c-1.33301 7.33301 -10.666 22.333 -27.999 45l-4 23c0.666992 45.333 16.334 102.666 47.001 171.999
c26.667 37.333 47 57.333 61 60c12.667 2 22 -6.33301 28 -25h-3l3 -3l1 -3l-29 -76c-12.667 -38.667 -17 -69.667 -13 -93l34 -78l3 -20c5.33301 -30.667 -8 -48.667 -40 -54z" />
    <glyph glyph-name="quotedblright" unicode="&#x201d;" horiz-adv-x="550" 
d="M99 1600c25.333 -14.667 42.001 -35.334 50.001 -62.001c0 -7.33301 6.66699 -23.666 20 -48.999v-24c-10.667 -44 -26 -80 -46 -108c-36 -64 -69.333 -98 -100 -102c-12.667 0 -20.334 9.66699 -23.001 29h3l-3 3v3l41 70c19.333 36.667 29 67 29 91l-20 81v21
c0 31.333 16.333 47 49 47zM286.001 1576c24.667 -14 41.334 -34.332 50.001 -60.999c0 -8 6.66699 -24.667 20 -50v-23c-8.66699 -44.667 -34 -98.334 -76 -161.001c-32.667 -32.667 -56 -49 -70 -49c-12.667 0 -20.334 9.66699 -23.001 29h3l-3 3v3l41 70
c19.333 36 29 66 29 90l-20 82v21c0 30.667 16.333 46 49 46z" />
    <glyph glyph-name="quotedblbase" unicode="&#x201e;" horiz-adv-x="682" 
 />
    <glyph glyph-name="dagger" unicode="&#x2020;" 
 />
    <glyph glyph-name="daggerdbl" unicode="&#x2021;" 
 />
    <glyph glyph-name="bullet" unicode="&#x2022;" horiz-adv-x="717" 
 />
    <glyph glyph-name="ellipsis" unicode="&#x2026;" horiz-adv-x="2048" 
 />
    <glyph glyph-name="perthousand" unicode="&#x2030;" horiz-adv-x="2048" 
 />
    <glyph glyph-name="minute" unicode="&#x2032;" horiz-adv-x="384" 
 />
    <glyph glyph-name="second" unicode="&#x2033;" horiz-adv-x="725" 
 />
    <glyph glyph-name="guilsinglleft" unicode="&#x2039;" horiz-adv-x="682" 
 />
    <glyph glyph-name="guilsinglright" unicode="&#x203a;" horiz-adv-x="682" 
 />
    <glyph glyph-name="exclamdbl" unicode="&#x203c;" horiz-adv-x="1024" 
 />
    <glyph glyph-name="uni203E" unicode="&#x203e;" horiz-adv-x="682" 
 />
    <glyph glyph-name="fraction" unicode="&#x2044;" horiz-adv-x="342" 
 />
    <glyph glyph-name="fraction" unicode="&#x2215;" horiz-adv-x="342" 
 />
    <glyph glyph-name="uni207F" unicode="&#x207f;" horiz-adv-x="747" 
 />
    <glyph glyph-name="franc" unicode="&#x20a3;" 
 />
    <glyph glyph-name="lira" unicode="&#x20a4;" 
 />
    <glyph glyph-name="peseta" unicode="&#x20a7;" horiz-adv-x="2240" 
 />
    <glyph glyph-name="Euro" unicode="&#x20ac;" 
 />
    <glyph glyph-name="afii61248" unicode="&#x2105;" horiz-adv-x="1813" 
 />
    <glyph glyph-name="afii61289" unicode="&#x2113;" horiz-adv-x="662" 
 />
    <glyph glyph-name="afii61352" unicode="&#x2116;" horiz-adv-x="2197" 
 />
    <glyph glyph-name="trademark" unicode="&#x2122;" horiz-adv-x="2048" 
 />
    <glyph glyph-name="Omega" unicode="&#x2126;" horiz-adv-x="1573" 
 />
    <glyph glyph-name="estimated" unicode="&#x212e;" horiz-adv-x="1229" 
 />
    <glyph glyph-name="oneeighth" unicode="&#x215b;" horiz-adv-x="1708" 
 />
    <glyph glyph-name="threeeighths" unicode="&#x215c;" horiz-adv-x="1708" 
 />
    <glyph glyph-name="fiveeighths" unicode="&#x215d;" horiz-adv-x="1708" 
 />
    <glyph glyph-name="seveneighths" unicode="&#x215e;" horiz-adv-x="1708" 
 />
    <glyph glyph-name="arrowleft" unicode="&#x2190;" horiz-adv-x="2048" 
 />
    <glyph glyph-name="arrowup" unicode="&#x2191;" horiz-adv-x="1024" 
 />
    <glyph glyph-name="arrowright" unicode="&#x2192;" horiz-adv-x="2048" 
 />
    <glyph glyph-name="arrowdown" unicode="&#x2193;" horiz-adv-x="1024" 
 />
    <glyph glyph-name="arrowboth" unicode="&#x2194;" horiz-adv-x="2048" 
 />
    <glyph glyph-name="arrowupdn" unicode="&#x2195;" horiz-adv-x="1024" 
 />
    <glyph glyph-name="arrowupdnbse" unicode="&#x21a8;" horiz-adv-x="1024" 
 />
    <glyph glyph-name="partialdiff" unicode="&#x2202;" horiz-adv-x="1012" 
 />
    <glyph glyph-name="Delta" unicode="&#x2206;" horiz-adv-x="1253" 
 />
    <glyph glyph-name="product" unicode="&#x220f;" horiz-adv-x="1686" 
 />
    <glyph glyph-name="summation" unicode="&#x2211;" horiz-adv-x="1460" 
 />
    <glyph glyph-name="minus" unicode="&#x2212;" horiz-adv-x="1196" 
 />
    <glyph glyph-name="radical" unicode="&#x221a;" horiz-adv-x="1124" 
 />
    <glyph glyph-name="infinity" unicode="&#x221e;" horiz-adv-x="1460" 
 />
    <glyph glyph-name="orthogonal" unicode="&#x221f;" horiz-adv-x="2005" 
 />
    <glyph glyph-name="intersection" unicode="&#x2229;" horiz-adv-x="1472" 
 />
    <glyph glyph-name="integral" unicode="&#x222b;" horiz-adv-x="561" 
 />
    <glyph glyph-name="approxequal" unicode="&#x2248;" horiz-adv-x="1124" 
 />
    <glyph glyph-name="notequal" unicode="&#x2260;" horiz-adv-x="1124" 
 />
    <glyph glyph-name="equivalence" unicode="&#x2261;" horiz-adv-x="1195" 
 />
    <glyph glyph-name="lessequal" unicode="&#x2264;" horiz-adv-x="1124" 
 />
    <glyph glyph-name="greaterequal" unicode="&#x2265;" horiz-adv-x="1124" 
 />
    <glyph glyph-name="house" unicode="&#x2302;" horiz-adv-x="1237" 
 />
    <glyph glyph-name="revlogicalnot" unicode="&#x2310;" horiz-adv-x="1196" 
 />
    <glyph glyph-name="integraltp" unicode="&#x2320;" horiz-adv-x="1237" 
 />
    <glyph glyph-name="integralbt" unicode="&#x2321;" horiz-adv-x="1237" 
 />
    <glyph glyph-name="SF100000" unicode="&#x2500;" horiz-adv-x="1451" 
 />
    <glyph glyph-name="SF110000" unicode="&#x2502;" horiz-adv-x="1280" 
 />
    <glyph glyph-name="SF010000" unicode="&#x250c;" horiz-adv-x="1451" 
 />
    <glyph glyph-name="SF030000" unicode="&#x2510;" horiz-adv-x="1451" 
 />
    <glyph glyph-name="SF020000" unicode="&#x2514;" horiz-adv-x="1451" 
 />
    <glyph glyph-name="SF040000" unicode="&#x2518;" horiz-adv-x="1451" 
 />
    <glyph glyph-name="SF080000" unicode="&#x251c;" horiz-adv-x="1451" 
 />
    <glyph glyph-name="SF090000" unicode="&#x2524;" horiz-adv-x="1451" 
 />
    <glyph glyph-name="SF060000" unicode="&#x252c;" horiz-adv-x="1451" 
 />
    <glyph glyph-name="SF070000" unicode="&#x2534;" horiz-adv-x="1451" 
 />
    <glyph glyph-name="SF050000" unicode="&#x253c;" horiz-adv-x="1451" 
 />
    <glyph glyph-name="SF430000" unicode="&#x2550;" horiz-adv-x="1451" 
 />
    <glyph glyph-name="SF240000" unicode="&#x2551;" horiz-adv-x="1451" 
 />
    <glyph glyph-name="SF510000" unicode="&#x2552;" horiz-adv-x="1451" 
 />
    <glyph glyph-name="SF520000" unicode="&#x2553;" horiz-adv-x="1451" 
 />
    <glyph glyph-name="SF390000" unicode="&#x2554;" horiz-adv-x="1451" 
 />
    <glyph glyph-name="SF220000" unicode="&#x2555;" horiz-adv-x="1451" 
 />
    <glyph glyph-name="SF210000" unicode="&#x2556;" horiz-adv-x="1451" 
 />
    <glyph glyph-name="SF250000" unicode="&#x2557;" horiz-adv-x="1451" 
 />
    <glyph glyph-name="SF500000" unicode="&#x2558;" horiz-adv-x="1451" 
 />
    <glyph glyph-name="SF490000" unicode="&#x2559;" horiz-adv-x="1451" 
 />
    <glyph glyph-name="SF380000" unicode="&#x255a;" horiz-adv-x="1451" 
 />
    <glyph glyph-name="SF280000" unicode="&#x255b;" horiz-adv-x="1451" 
 />
    <glyph glyph-name="SF270000" unicode="&#x255c;" horiz-adv-x="1451" 
 />
    <glyph glyph-name="SF260000" unicode="&#x255d;" horiz-adv-x="1451" 
 />
    <glyph glyph-name="SF360000" unicode="&#x255e;" horiz-adv-x="1451" 
 />
    <glyph glyph-name="SF370000" unicode="&#x255f;" horiz-adv-x="1451" 
 />
    <glyph glyph-name="SF420000" unicode="&#x2560;" horiz-adv-x="1451" 
 />
    <glyph glyph-name="SF190000" unicode="&#x2561;" horiz-adv-x="1451" 
 />
    <glyph glyph-name="SF200000" unicode="&#x2562;" horiz-adv-x="1451" 
 />
    <glyph glyph-name="SF230000" unicode="&#x2563;" horiz-adv-x="1451" 
 />
    <glyph glyph-name="SF470000" unicode="&#x2564;" horiz-adv-x="1451" 
 />
    <glyph glyph-name="SF480000" unicode="&#x2565;" horiz-adv-x="1451" 
 />
    <glyph glyph-name="SF410000" unicode="&#x2566;" horiz-adv-x="1451" 
 />
    <glyph glyph-name="SF450000" unicode="&#x2567;" horiz-adv-x="1451" 
 />
    <glyph glyph-name="SF460000" unicode="&#x2568;" horiz-adv-x="1451" 
 />
    <glyph glyph-name="SF400000" unicode="&#x2569;" horiz-adv-x="1451" 
 />
    <glyph glyph-name="SF540000" unicode="&#x256a;" horiz-adv-x="1451" 
 />
    <glyph glyph-name="SF530000" unicode="&#x256b;" horiz-adv-x="1451" 
 />
    <glyph glyph-name="SF440000" unicode="&#x256c;" horiz-adv-x="1451" 
 />
    <glyph glyph-name="upblock" unicode="&#x2580;" horiz-adv-x="1451" 
 />
    <glyph glyph-name="dnblock" unicode="&#x2584;" horiz-adv-x="1451" 
 />
    <glyph glyph-name="block" unicode="&#x2588;" horiz-adv-x="1451" 
 />
    <glyph glyph-name="lfblock" unicode="&#x258c;" horiz-adv-x="1451" 
 />
    <glyph glyph-name="rtblock" unicode="&#x2590;" horiz-adv-x="1451" 
 />
    <glyph glyph-name="ltshade" unicode="&#x2591;" horiz-adv-x="1451" 
 />
    <glyph glyph-name="shade" unicode="&#x2592;" horiz-adv-x="1451" 
 />
    <glyph glyph-name="dkshade" unicode="&#x2593;" horiz-adv-x="1493" 
 />
    <glyph glyph-name="filledbox" unicode="&#x25a0;" horiz-adv-x="1237" 
 />
    <glyph glyph-name="H22073" unicode="&#x25a1;" horiz-adv-x="1237" 
 />
    <glyph glyph-name="H18543" unicode="&#x25aa;" horiz-adv-x="726" 
 />
    <glyph glyph-name="H18551" unicode="&#x25ab;" horiz-adv-x="726" 
 />
    <glyph glyph-name="filledrect" unicode="&#x25ac;" horiz-adv-x="2048" 
 />
    <glyph glyph-name="triagup" unicode="&#x25b2;" horiz-adv-x="2027" 
 />
    <glyph glyph-name="triagrt" unicode="&#x25ba;" horiz-adv-x="2027" 
 />
    <glyph glyph-name="triagdn" unicode="&#x25bc;" horiz-adv-x="2027" 
 />
    <glyph glyph-name="triaglf" unicode="&#x25c4;" horiz-adv-x="2027" 
 />
    <glyph glyph-name="lozenge" unicode="&#x25ca;" horiz-adv-x="1012" 
 />
    <glyph glyph-name="circle" unicode="&#x25cb;" horiz-adv-x="1237" 
 />
    <glyph glyph-name="H18533" unicode="&#x25cf;" horiz-adv-x="1237" 
 />
    <glyph glyph-name="invbullet" unicode="&#x25d8;" horiz-adv-x="1237" 
 />
    <glyph glyph-name="invcircle" unicode="&#x25d9;" horiz-adv-x="1237" 
 />
    <glyph glyph-name="openbullet" unicode="&#x25e6;" horiz-adv-x="726" 
 />
    <glyph glyph-name="smileface" unicode="&#x263a;" horiz-adv-x="2091" 
 />
    <glyph glyph-name="invsmileface" unicode="&#x263b;" horiz-adv-x="2155" 
 />
    <glyph glyph-name="sun" unicode="&#x263c;" horiz-adv-x="1877" 
 />
    <glyph glyph-name="female" unicode="&#x2640;" horiz-adv-x="1536" 
 />
    <glyph glyph-name="male" unicode="&#x2642;" horiz-adv-x="1536" 
 />
    <glyph glyph-name="spade" unicode="&#x2660;" horiz-adv-x="1088" 
 />
    <glyph glyph-name="club" unicode="&#x2663;" horiz-adv-x="1344" 
 />
    <glyph glyph-name="heart" unicode="&#x2665;" horiz-adv-x="1216" 
 />
    <glyph glyph-name="diamond" unicode="&#x2666;" horiz-adv-x="1045" 
 />
    <glyph glyph-name="musicalnote" unicode="&#x266a;" horiz-adv-x="1024" 
 />
    <glyph glyph-name="musicalnotedbl" unicode="&#x266b;" horiz-adv-x="1536" 
 />
    <glyph glyph-name="uniF001" unicode="&#xf001;" horiz-adv-x="1024" 
 />
    <glyph glyph-name="uniF001" unicode="&#xfb01;" horiz-adv-x="1024" 
 />
    <glyph glyph-name="uniF002" unicode="&#xf002;" horiz-adv-x="1024" 
 />
    <glyph glyph-name="uniF002" unicode="&#xfb02;" horiz-adv-x="1024" 
 />
    <glyph glyph-name="uniF004" unicode="&#xf004;" horiz-adv-x="682" 
 />
    <glyph glyph-name="uniF005" unicode="&#xf005;" horiz-adv-x="682" 
 />
    <glyph glyph-name="NULL" horiz-adv-x="0" 
 />
    <glyph glyph-name="nonmarkingreturn" horiz-adv-x="569" 
 />
    <glyph glyph-name=".notdef.001" horiz-adv-x="1536" 
d="M256 0v1280h1024v-1280h-1024zM288 32h960v1216h-960v-1216z" />
  </font>
</defs>
</svg>
